<?xml version="1.0" standalone="no"?>
<!DOCTYPE svg PUBLIC "-//W3C//DTD SVG 1.1//EN" "http://www.w3.org/Graphics/SVG/1.1/DTD/svg11.dtd" >
<svg xmlns="http://www.w3.org/2000/svg" xmlns:xlink="http://www.w3.org/1999/xlink" version="1.1">
<metadata>
Created by FontForge 20181014 at Thu Feb 20 23:08:18 2014
 By convertio
2005 Albert-Jan Pool published by FSI FontShop International GmbH
</metadata>
<defs>
<font id="DINPro-Black" horiz-adv-x="556" >
  <font-face 
    font-family="DIN Pro Black"
    font-weight="900"
    font-stretch="normal"
    units-per-em="1000"
    panose-1="2 11 10 4 2 1 1 1 1 2"
    ascent="800"
    descent="-200"
    x-height="538"
    cap-height="712"
    bbox="-232 -237 1215 1221"
    underline-thickness="108"
    underline-position="-132"
    stemh="156"
    stemv="164"
    unicode-range="U+000D-FEFF"
  />
<missing-glyph horiz-adv-x="579" 
d="M62 0v712h455v-712h-455zM170 108h239v496h-239v-496z" />
    <glyph glyph-name=".notdef" horiz-adv-x="579" 
d="M62 0v712h455v-712h-455zM170 108h239v496h-239v-496z" />
    <glyph glyph-name=".null" horiz-adv-x="0" 
 />
    <glyph glyph-name=".null" horiz-adv-x="0" 
 />
    <glyph glyph-name="CR" unicode="&#xd;" horiz-adv-x="222" 
 />
    <glyph glyph-name="space" unicode=" " horiz-adv-x="222" 
 />
    <glyph glyph-name="exclam" unicode="!" horiz-adv-x="366" 
d="M306 712l-44 -475h-118l-44 475h206zM287 0h-168v161h168v-161z" />
    <glyph glyph-name="quotedbl" unicode="&#x22;" horiz-adv-x="488" 
d="M431 478h-147v234h147v-234zM204 478h-147v234h147v-234z" />
    <glyph glyph-name="numbersign" unicode="#" horiz-adv-x="713" 
d="M666 412h-83l-13 -88h58v-155h-83l-27 -169h-174l27 169h-90l-27 -169h-174l27 169h-58v155h83l13 88h-58v155h83l24 153h174l-24 -153h90l24 153h174l-24 -153h58v-155zM409 412h-90l-13 -88h90z" />
    <glyph glyph-name="dollar" unicode="$" horiz-adv-x="633" 
d="M590 218c0 -125 -93 -200 -214 -219v-113h-126v108c-98 3 -179 26 -245 94l112 112c36 -36 97 -49 153 -50v132l-39 5c-63 8 -111 30 -143 63c-33 34 -49 82 -49 143c0 116 78 205 211 222v91h126v-89c84 -5 150 -31 203 -84l-110 -110c-31 31 -83 39 -113 41v-125l41 -6
c64 -9 110 -29 140 -59c38 -37 53 -90 53 -156zM418 214c0 17 -4 32 -14 42c-12 13 -31 17 -48 19v-122c42 8 62 29 62 61zM270 445v118c-44 -8 -62 -37 -62 -64c0 -9 3 -22 14 -33c9 -9 24 -18 48 -21z" />
    <glyph glyph-name="percent" unicode="%" horiz-adv-x="857" 
d="M812 133c0 -95 -72 -139 -151 -139s-151 44 -151 139v95c0 95 72 139 151 139s151 -44 151 -139v-95zM347 484c0 -95 -72 -139 -151 -139s-151 44 -151 139v95c0 95 72 139 151 139s151 -44 151 -139v-95zM661 712l-339 -712h-126l339 712h126zM231 488v87
c0 29 -15 39 -35 39s-35 -10 -35 -39v-87c0 -29 15 -39 35 -39s35 10 35 39zM696 137v87c0 29 -15 39 -35 39s-35 -10 -35 -39v-87c0 -29 15 -39 35 -39s35 10 35 39z" />
    <glyph glyph-name="ampersand" unicode="&#x26;" horiz-adv-x="710" 
d="M710 0h-206l-45 52c-38 -29 -78 -58 -169 -58c-168 0 -241 83 -241 222c0 82 60 143 113 178c-25 28 -67 76 -67 147c0 105 73 177 209 177c126 0 199 -74 199 -179c0 -62 -31 -95 -91 -138l-29 -21l84 -97c20 23 30 69 33 103h154c-7 -93 -31 -166 -83 -223zM360 168
l-111 127c-33 -23 -42 -44 -42 -78c0 -44 39 -75 83 -75c36 0 54 12 70 26zM349 538c0 24 -15 42 -45 42c-34 0 -45 -18 -45 -43c0 -17 16 -36 38 -58l24 17c17 12 28 26 28 42z" />
    <glyph glyph-name="quotesingle" unicode="'" horiz-adv-x="262" 
d="M205 478h-148v234h148v-234z" />
    <glyph glyph-name="parenleft" unicode="(" horiz-adv-x="358" 
d="M309 16l-110 -110c-34 34 -73 70 -98 113c-26 43 -29 95 -29 144v386c0 49 3 101 29 144c25 43 64 79 98 113l110 -110c-25 -25 -38 -36 -57 -67c-10 -17 -16 -45 -16 -86v-374c0 -41 6 -69 16 -86c19 -31 32 -42 57 -67z" />
    <glyph glyph-name="parenright" unicode=")" horiz-adv-x="358" 
d="M286 163c0 -49 -3 -101 -29 -144c-25 -43 -64 -79 -98 -113l-110 110c25 25 38 36 57 67c10 17 16 45 16 86v374c0 41 -6 69 -16 86c-19 31 -32 42 -57 67l110 110c34 -34 73 -70 98 -113c26 -43 29 -95 29 -144v-386z" />
    <glyph glyph-name="asterisk" unicode="*" horiz-adv-x="506" 
d="M459 453l-56 -97l-99 64l5 -118h-112l5 118l-99 -64l-56 97l105 54l-105 54l56 97l99 -64l-5 118h112l-5 -118l99 64l56 -97l-105 -54z" />
    <glyph glyph-name="plus" unicode="+" 
d="M507 206h-152v-152h-154v152h-152v154h152v152h154v-152h152v-154z" />
    <glyph glyph-name="comma" unicode="," horiz-adv-x="288" 
d="M231 -50l-174 -128v352h174v-224z" />
    <glyph glyph-name="hyphen" unicode="-" horiz-adv-x="426" 
d="M377 218h-328v154h328v-154z" />
    <glyph glyph-name="period" unicode="." horiz-adv-x="294" 
d="M237 0h-180v180h180v-180z" />
    <glyph glyph-name="slash" unicode="/" horiz-adv-x="431" 
d="M437 786l-285 -860h-152l285 860h152z" />
    <glyph glyph-name="zero" unicode="0" 
d="M507 216c0 -147 -111 -222 -229 -222s-229 75 -229 222v280c0 147 111 222 229 222s229 -75 229 -222v-280zM343 215v281c0 50 -30 74 -65 74s-65 -24 -65 -74v-281c0 -50 30 -73 65 -73s65 23 65 73z" />
    <glyph glyph-name="one" unicode="1" 
d="M406 0h-164v537l-152 -132v175l152 132h164v-712z" />
    <glyph glyph-name="two" unicode="2" 
d="M511 0h-458v148l258 280c26 28 36 46 36 76c0 39 -22 66 -64 66c-30 0 -66 -14 -66 -69h-164c0 140 106 217 230 217c132 0 228 -81 228 -215c0 -75 -31 -115 -88 -175l-170 -180h258v-148z" />
    <glyph glyph-name="three" unicode="3" 
d="M516 213c0 -149 -112 -219 -237 -219c-118 0 -237 63 -237 223h164c0 -50 32 -75 73 -75c43 0 73 25 73 76c0 43 -32 75 -76 75h-23v142h23c49 0 68 35 68 67c0 45 -31 68 -65 68s-65 -24 -65 -67h-164c0 134 102 215 229 215c132 0 229 -88 229 -211
c0 -78 -38 -116 -74 -139c39 -27 82 -70 82 -155z" />
    <glyph glyph-name="four" unicode="4" 
d="M530 94h-53v-94h-156v94h-295v156l236 462h180l-236 -462h115v94h156v-94h53v-156z" />
    <glyph glyph-name="five" unicode="5" 
d="M512 243c0 -86 -13 -135 -66 -188c-31 -31 -85 -61 -165 -61s-138 31 -169 62c-51 51 -58 109 -62 161h164c5 -47 25 -75 67 -75c20 0 33 5 46 18c15 15 21 41 21 83c0 79 -27 101 -67 101c-48 0 -60 -32 -67 -51h-151v419h434v-148h-285v-110c14 11 52 28 96 28
c62 0 109 -21 138 -50c58 -58 66 -122 66 -189z" />
    <glyph glyph-name="six" unicode="6" 
d="M512 223c0 -151 -109 -229 -237 -229s-237 78 -237 229c0 52 15 100 62 195l143 294h180l-141 -279c14 5 29 5 40 5c87 0 190 -74 190 -215zM348 223c0 53 -33 81 -73 81s-73 -28 -73 -81s33 -81 73 -81s73 28 73 81z" />
    <glyph glyph-name="seven" unicode="7" 
d="M522 564l-222 -564h-180l222 564h-152v-112h-156v260h488v-148z" />
    <glyph glyph-name="eight" unicode="8" 
d="M517 213c0 -148 -108 -219 -239 -219s-239 71 -239 219c0 89 53 131 80 153c-25 21 -73 64 -73 141c0 135 110 211 232 211s232 -76 232 -211c0 -77 -48 -120 -73 -141c27 -22 80 -64 80 -153zM353 217c0 41 -34 75 -75 75s-75 -34 -75 -75s34 -75 75 -75s75 34 75 75z
M346 502c0 38 -30 68 -68 68s-68 -30 -68 -68s30 -68 68 -68s68 30 68 68z" />
    <glyph glyph-name="nine" unicode="9" 
d="M518 489c0 -62 -22 -112 -62 -194l-143 -295h-180l141 279c-14 -5 -29 -5 -40 -5c-87 0 -190 74 -190 215c0 151 109 229 237 229s237 -78 237 -229zM354 489c0 53 -33 81 -73 81s-73 -28 -73 -81s33 -81 73 -81s73 28 73 81z" />
    <glyph glyph-name="colon" unicode=":" horiz-adv-x="317" 
d="M260 253h-180v180h180v-180zM260 0h-180v180h180v-180z" />
    <glyph glyph-name="semicolon" unicode=";" horiz-adv-x="317" 
d="M257 -50l-174 -128v352h174v-224zM260 253h-180v180h180v-180z" />
    <glyph glyph-name="less" unicode="&#x3c;" 
d="M503 26l-450 198v142l450 198v-173l-235 -96l235 -96v-173z" />
    <glyph glyph-name="equal" unicode="=" 
d="M507 340h-458v154h458v-154zM507 96h-458v154h458v-154z" />
    <glyph glyph-name="greater" unicode="&#x3e;" 
d="M503 224l-450 -198v173l235 96l-235 96v173l450 -198v-142z" />
    <glyph glyph-name="question" unicode="?" horiz-adv-x="538" 
d="M508 508c0 -52 -23 -92 -51 -128l-69 -87c-9 -11 -18 -30 -18 -47v-9h-164v23c0 45 11 76 41 111l70 82c15 17 27 40 27 56c0 35 -20 61 -60 61c-42 0 -60 -27 -60 -63h-164c0 136 103 211 224 211c118 0 224 -71 224 -210zM372 0h-168v161h168v-161z" />
    <glyph glyph-name="at" unicode="@" horiz-adv-x="784" 
d="M735 0h-151v40c-31 -30 -61 -46 -113 -46c-49 0 -91 16 -120 44c-46 44 -48 99 -48 188s2 143 48 188c29 28 70 44 119 44c47 0 81 -14 109 -41v26c0 35 -6 69 -32 95c-25 25 -60 32 -95 32h-120c-35 0 -68 -5 -95 -32c-28 -28 -32 -60 -32 -95v-262c0 -42 10 -60 36 -86
l-113 -113c-55 55 -79 98 -79 189v278c0 89 13 154 64 205s117 64 208 64h142c87 0 156 -12 208 -64c51 -51 64 -115 64 -205v-449zM579 226c0 71 -20 96 -60 96s-60 -25 -60 -96s20 -96 60 -96s60 25 60 96z" />
    <glyph glyph-name="A" unicode="A" horiz-adv-x="653" 
d="M653 0h-183l-33 106h-219l-35 -106h-183l259 712h135zM391 252l-60 190l-64 -190h124z" />
    <glyph glyph-name="B" unicode="B" horiz-adv-x="653" 
d="M604 210c0 -136 -95 -210 -222 -210h-310v712h295c148 0 227 -83 227 -206c0 -81 -56 -126 -78 -141c29 -18 88 -55 88 -155zM429 220c0 30 -16 62 -64 62h-118v-125h118c48 0 64 33 64 63zM419 497c0 28 -15 58 -63 58h-109v-116h109c48 0 63 30 63 58z" />
    <glyph glyph-name="C" unicode="C" horiz-adv-x="609" 
d="M589 226c-26 -157 -134 -232 -269 -232c-87 0 -147 27 -198 78c-73 73 -73 164 -73 284s0 211 73 284c51 51 111 78 198 78c135 0 243 -75 269 -232h-178c-11 40 -33 76 -91 76c-32 0 -56 -13 -69 -30c-16 -21 -27 -46 -27 -176s11 -155 27 -176c13 -17 37 -30 69 -30
c58 0 80 36 91 76h178z" />
    <glyph glyph-name="D" unicode="D" horiz-adv-x="651" 
d="M602 356c0 -123 0 -179 -35 -236c-49 -79 -124 -120 -231 -120h-264v712h264c107 0 182 -41 231 -120c35 -57 35 -113 35 -236zM427 356c0 120 -5 140 -19 160c-16 24 -40 40 -84 40h-77v-400h77c44 0 68 16 84 40c14 20 19 39 19 160z" />
    <glyph glyph-name="E" unicode="E" horiz-adv-x="608" 
d="M556 0h-484v712h484v-156h-309v-119h264v-156h-264v-125h309v-156z" />
    <glyph glyph-name="F" unicode="F" horiz-adv-x="596" 
d="M556 556h-309v-125h264v-156h-264v-275h-175v712h484v-156z" />
    <glyph glyph-name="G" unicode="G" horiz-adv-x="647" 
d="M598 311c0 -115 -18 -182 -72 -237c-61 -63 -129 -80 -207 -80c-86 0 -146 27 -197 78c-73 73 -73 164 -73 284s0 211 73 284c51 51 111 78 197 78c183 0 261 -119 278 -236h-176c-14 54 -42 80 -102 80c-32 0 -56 -14 -69 -31c-16 -21 -26 -45 -26 -175s10 -155 26 -176
c13 -17 37 -30 69 -30c37 0 62 11 78 28c20 20 27 49 27 76v10h-105v146h279v-99z" />
    <glyph glyph-name="H" unicode="H" horiz-adv-x="680" 
d="M608 0h-175v282h-186v-282h-175v712h175v-274h186v274h175v-712z" />
    <glyph glyph-name="I" unicode="I" horiz-adv-x="319" 
d="M247 0h-175v712h175v-712z" />
    <glyph glyph-name="J" unicode="J" horiz-adv-x="516" 
d="M454 244c0 -169 -134 -250 -268 -250c-83 0 -136 20 -194 78l115 114c22 -22 40 -36 79 -36c54 0 93 30 93 98v464h175v-468z" />
    <glyph glyph-name="K" unicode="K" horiz-adv-x="673" 
d="M673 0h-204l-164 292l-60 -69v-223h-173v712h173v-252l206 252h214l-243 -288z" />
    <glyph glyph-name="L" unicode="L" horiz-adv-x="576" 
d="M546 0h-474v712h175v-556h299v-156z" />
    <glyph glyph-name="M" unicode="M" horiz-adv-x="808" 
d="M736 0h-175v341l-101 -176h-112l-101 176v-341h-175v712h172l160 -314l160 314h172v-712z" />
    <glyph glyph-name="N" unicode="N" horiz-adv-x="700" 
d="M628 0h-153l-228 358v-358h-175v712h153l228 -358v358h175v-712z" />
    <glyph glyph-name="O" unicode="O" horiz-adv-x="640" 
d="M591 356c0 -120 0 -211 -73 -284c-51 -51 -111 -78 -198 -78s-147 27 -198 78c-73 73 -73 164 -73 284s0 211 73 284c51 51 111 78 198 78s147 -27 198 -78c73 -73 73 -164 73 -284zM416 356c0 130 -10 154 -26 175c-13 17 -38 31 -70 31s-57 -14 -70 -31
c-16 -21 -26 -45 -26 -175s10 -153 26 -174c13 -17 38 -32 70 -32s57 15 70 32c16 21 26 44 26 174z" />
    <glyph glyph-name="P" unicode="P" horiz-adv-x="627" 
d="M597 483c0 -117 -85 -229 -243 -229h-107v-254h-175v712h282c158 0 243 -112 243 -229zM422 483c0 37 -28 72 -76 72h-99v-144h99c48 0 76 35 76 72z" />
    <glyph glyph-name="Q" unicode="Q" horiz-adv-x="640" 
d="M591 356c0 -99 0 -178 -41 -244l52 -51l-89 -89l-55 54c-38 -21 -83 -32 -138 -32c-87 0 -147 27 -198 78c-73 73 -73 164 -73 284s0 211 73 284c51 51 111 78 198 78s147 -27 198 -78c73 -73 73 -164 73 -284zM416 356c0 130 -10 154 -26 175c-13 17 -38 31 -70 31
s-57 -14 -70 -31c-16 -21 -26 -45 -26 -175s10 -153 26 -174c13 -17 38 -32 70 -32c5 0 9 0 14 1l-45 45l89 89l34 -34c2 24 4 57 4 105z" />
    <glyph glyph-name="R" unicode="R" horiz-adv-x="652" 
d="M635 0h-203l-126 265h-59v-265h-175v712h282c158 0 243 -112 243 -229c0 -97 -60 -158 -116 -186zM422 483c0 37 -28 72 -76 72h-99v-144h99c48 0 76 35 76 72z" />
    <glyph glyph-name="S" unicode="S" horiz-adv-x="593" 
d="M550 218c0 -145 -125 -224 -275 -224c-109 0 -198 20 -270 94l112 112c37 -37 102 -50 159 -50c69 0 102 23 102 64c0 17 -4 31 -14 42c-9 9 -24 16 -47 19l-86 12c-63 9 -111 30 -143 63c-33 34 -49 82 -49 143c0 130 98 225 260 225c102 0 179 -24 240 -85l-110 -110
c-37 37 -78 42 -135 42c-61 0 -86 -35 -86 -66c0 -9 3 -22 14 -33c9 -9 24 -18 49 -21l86 -12c64 -9 110 -29 140 -59c38 -37 53 -90 53 -156z" />
    <glyph glyph-name="T" unicode="T" horiz-adv-x="585" 
d="M555 556h-175v-556h-175v556h-175v156h525v-156z" />
    <glyph glyph-name="U" unicode="U" horiz-adv-x="660" 
d="M600 250c0 -156 -123 -256 -271 -256s-269 100 -269 256v462h175v-458c0 -66 36 -104 94 -104s96 38 96 104v458h175v-462z" />
    <glyph glyph-name="V" unicode="V" horiz-adv-x="601" 
d="M601 712l-236 -712h-130l-235 712h181l120 -398l118 398h182z" />
    <glyph glyph-name="W" unicode="W" horiz-adv-x="906" 
d="M906 712l-195 -712h-143l-115 351l-115 -351h-142l-196 712h183l93 -376l115 376h124l115 -376l93 376h183z" />
    <glyph glyph-name="X" unicode="X" horiz-adv-x="634" 
d="M634 0h-200l-117 219l-117 -219h-200l222 365l-208 347h199l104 -201l104 201h199l-208 -347z" />
    <glyph glyph-name="Y" unicode="Y" horiz-adv-x="605" 
d="M605 712l-215 -422v-290h-175v290l-215 422h191l112 -256l111 256h191z" />
    <glyph glyph-name="Z" unicode="Z" horiz-adv-x="543" 
d="M513 0h-483v136l273 420h-261v156h471v-136l-274 -420h274v-156z" />
    <glyph glyph-name="bracketleft" unicode="[" horiz-adv-x="416" 
d="M376 -74h-304v860h304v-148h-140v-564h140v-148z" />
    <glyph glyph-name="backslash" unicode="\" horiz-adv-x="431" 
d="M431 -74h-152l-279 842h152z" />
    <glyph glyph-name="bracketright" unicode="]" horiz-adv-x="416" 
d="M344 -74h-304v148h140v564h-140v148h304v-860z" />
    <glyph glyph-name="asciicircum" unicode="^" horiz-adv-x="640" 
d="M583 375h-173l-90 165l-90 -165h-173l187 345h152z" />
    <glyph glyph-name="underscore" unicode="_" horiz-adv-x="640" 
d="M640 -186h-640v108h640v-108z" />
    <glyph glyph-name="grave" unicode="`" horiz-adv-x="500" 
d="M341 610h-117l-101 180h153z" />
    <glyph glyph-name="a" unicode="a" horiz-adv-x="536" 
d="M483 0h-160v44c-33 -33 -63 -49 -120 -49c-54 0 -99 18 -129 48c-31 31 -47 76 -47 126c0 81 55 156 186 156h106v14c0 49 -24 67 -81 67c-37 0 -59 -12 -85 -38l-102 102c55 55 104 74 195 74c154 0 237 -64 237 -195v-349zM319 202v14h-78c-38 0 -57 -17 -57 -44
c0 -25 19 -44 59 -44c27 0 42 4 59 19c13 12 17 27 17 55z" />
    <glyph glyph-name="b" unicode="b" horiz-adv-x="569" 
d="M526 269c0 -93 -1 -174 -51 -226c-31 -32 -78 -49 -130 -49c-56 0 -91 17 -124 50v-44h-159v712h164v-213c30 30 67 45 120 45c52 0 98 -17 129 -49c50 -52 51 -133 51 -226zM362 269c0 78 -7 127 -68 127s-68 -49 -68 -127s7 -127 68 -127s68 49 68 127z" />
    <glyph glyph-name="c" unicode="c" horiz-adv-x="475" 
d="M457 63c-44 -44 -102 -69 -177 -69c-93 0 -242 40 -242 275s149 275 242 275c75 0 133 -25 177 -69l-111 -111c-21 21 -39 32 -66 32c-22 0 -37 -7 -51 -21c-19 -20 -27 -55 -27 -106s8 -86 27 -106c14 -14 29 -21 51 -21c27 0 45 11 66 32z" />
    <glyph glyph-name="d" unicode="d" horiz-adv-x="569" 
d="M507 0h-159v44c-33 -33 -68 -50 -124 -50c-52 0 -99 17 -130 49c-50 52 -51 133 -51 226s1 174 51 226c31 32 77 49 129 49c53 0 90 -15 120 -45v213h164v-712zM343 269c0 78 -7 127 -68 127s-68 -49 -68 -127s7 -127 68 -127s68 49 68 127z" />
    <glyph glyph-name="e" unicode="e" horiz-adv-x="559" 
d="M521 216h-322c0 -44 34 -84 95 -84c57 0 82 16 111 45l98 -98c-55 -55 -109 -85 -209 -85c-119 0 -256 43 -256 275c0 176 100 275 241 275c156 0 242 -112 242 -260v-68zM359 325c0 13 -2 27 -9 42c-10 22 -32 42 -71 42s-61 -20 -71 -42c-7 -15 -9 -29 -9 -42h160z" />
    <glyph glyph-name="f" unicode="f" horiz-adv-x="358" 
d="M333 391h-90v-391h-164v391h-49v126h49v47c0 74 48 159 167 159h87v-138h-57c-22 0 -33 -12 -33 -33v-35h90v-126z" />
    <glyph glyph-name="g" unicode="g" horiz-adv-x="561" 
d="M499 39c0 -127 -96 -219 -243 -219c-84 0 -147 15 -202 70l102 102c25 -25 55 -34 92 -34c69 0 87 47 87 82v39c-30 -30 -66 -45 -116 -45c-52 0 -95 17 -126 48c-49 49 -50 109 -50 207s1 158 50 207c31 31 75 48 127 48c55 0 87 -17 120 -50v44h159v-499zM335 289
c0 55 -4 107 -64 107s-64 -52 -64 -107s4 -107 64 -107s64 52 64 107z" />
    <glyph glyph-name="h" unicode="h" horiz-adv-x="579" 
d="M522 0h-164v322c0 62 -44 74 -66 74s-66 -12 -66 -74v-322h-164v712h164v-218c32 33 76 50 121 50c51 0 92 -17 121 -46c46 -46 54 -97 54 -154v-344z" />
    <glyph glyph-name="i" unicode="i" horiz-adv-x="288" 
d="M226 0h-164v517h164v-517zM226 593h-164v125h164v-125z" />
    <glyph glyph-name="j" unicode="j" horiz-adv-x="288" 
d="M226 -21c0 -74 -48 -159 -167 -159h-87v138h57c22 0 33 12 33 33v526h164v-538zM226 593h-164v125h164v-125z" />
    <glyph glyph-name="k" unicode="k" horiz-adv-x="573" 
d="M573 0h-203l-112 197l-32 -35v-162h-164v712h164v-362l145 188h197l-198 -223z" />
    <glyph glyph-name="l" unicode="l" horiz-adv-x="341" 
d="M311 0h-87c-119 0 -167 85 -167 159v553h164v-541c0 -21 11 -33 33 -33h57v-138z" />
    <glyph glyph-name="m" unicode="m" horiz-adv-x="875" 
d="M818 0h-164v322c0 62 -44 74 -66 74s-66 -12 -66 -74v-322h-164v322c0 62 -44 74 -66 74s-66 -12 -66 -74v-322h-164v538h160v-44c33 33 82 50 125 50c53 0 96 -17 131 -57c47 41 90 57 152 57c51 0 100 -17 129 -46c46 -46 59 -97 59 -154v-344z" />
    <glyph glyph-name="n" unicode="n" horiz-adv-x="579" 
d="M522 0h-164v322c0 62 -44 74 -66 74s-66 -12 -66 -74v-322h-164v538h160v-44c33 33 82 50 125 50c51 0 92 -17 121 -46c46 -46 54 -97 54 -154v-344z" />
    <glyph glyph-name="o" unicode="o" horiz-adv-x="550" 
d="M507 269c0 -106 -14 -157 -59 -206c-32 -34 -86 -69 -173 -69s-141 35 -173 69c-45 49 -59 100 -59 206c0 105 14 157 59 206c32 34 86 69 173 69s141 -35 173 -69c45 -49 59 -101 59 -206zM343 269c0 53 -3 91 -24 112c-10 10 -24 15 -44 15s-34 -5 -44 -15
c-21 -21 -24 -59 -24 -112s3 -91 24 -112c10 -10 24 -15 44 -15s34 5 44 15c21 21 24 59 24 112z" />
    <glyph glyph-name="p" unicode="p" horiz-adv-x="569" 
d="M526 269c0 -93 -1 -174 -51 -226c-31 -32 -77 -49 -129 -49c-53 0 -90 15 -120 45v-213h-164v712h159v-44c33 33 68 50 124 50c52 0 99 -17 130 -49c50 -52 51 -133 51 -226zM362 269c0 78 -7 127 -68 127s-68 -49 -68 -127s7 -127 68 -127s68 49 68 127z" />
    <glyph glyph-name="q" unicode="q" horiz-adv-x="569" 
d="M507 -174h-164v213c-30 -30 -67 -45 -120 -45c-52 0 -98 17 -129 49c-50 52 -51 133 -51 226s1 174 51 226c31 32 78 49 130 49c56 0 91 -17 124 -50v44h159v-712zM343 269c0 78 -7 127 -68 127s-68 -49 -68 -127s7 -127 68 -127s68 49 68 127z" />
    <glyph glyph-name="r" unicode="r" horiz-adv-x="475" 
d="M475 494l-124 -126c-16 16 -31 28 -59 28c-22 0 -66 -13 -66 -74v-322h-164v538h160v-44c24 24 71 50 127 50c53 0 89 -13 126 -50z" />
    <glyph glyph-name="s" unicode="s" horiz-adv-x="504" 
d="M477 176c0 -127 -108 -182 -233 -182c-81 0 -160 4 -234 78l106 106c45 -45 103 -45 131 -45c24 0 70 7 70 35c0 15 -7 31 -39 34l-83 8c-93 9 -156 51 -156 156c0 119 107 178 214 178c88 0 159 -13 212 -66l-101 -101c-27 27 -72 32 -114 32c-40 0 -53 -19 -53 -31
c0 -16 8 -27 35 -30l83 -8c113 -11 162 -78 162 -164z" />
    <glyph glyph-name="t" unicode="t" horiz-adv-x="363" 
d="M323 0h-82c-119 0 -167 85 -167 159v232h-49v126h49v154h164v-154h85v-126h-85v-220c0 -21 11 -33 33 -33h52v-138z" />
    <glyph glyph-name="u" unicode="u" horiz-adv-x="579" 
d="M517 0h-160v44c-33 -33 -82 -50 -125 -50c-51 0 -92 17 -121 46c-46 46 -54 97 -54 154v344h164v-322c0 -62 44 -74 66 -74s66 12 66 74v322h164v-538z" />
    <glyph glyph-name="v" unicode="v" horiz-adv-x="521" 
d="M521 538l-198 -538h-125l-198 538h172l89 -279l88 279h172z" />
    <glyph glyph-name="w" unicode="w" horiz-adv-x="780" 
d="M780 538l-162 -538h-131l-97 295l-97 -295h-131l-162 538h173l67 -279l93 279h114l93 -279l67 279h173z" />
    <glyph glyph-name="x" unicode="x" 
d="M556 0h-197l-82 136l-80 -136h-197l187 275l-180 263h197l73 -130l75 130h197l-180 -263z" />
    <glyph glyph-name="y" unicode="y" horiz-adv-x="514" 
d="M522 538l-223 -602c-11 -31 -25 -54 -42 -71c-32 -34 -73 -45 -121 -45h-62v148h35c29 0 44 7 55 40l15 45l-179 485h172l91 -279l87 279h172z" />
    <glyph glyph-name="z" unicode="z" horiz-adv-x="489" 
d="M449 0h-419v121l205 269h-193v148h407v-121l-209 -269h209v-148z" />
    <glyph glyph-name="braceleft" unicode="{" horiz-adv-x="518" 
d="M478 -74h-140c-53 0 -93 16 -119 42c-34 34 -48 76 -48 117v119c0 28 -5 48 -17 60s-30 18 -56 18h-58v148h58c26 0 44 6 56 18s17 32 17 60v119c0 41 14 83 48 117c26 26 66 42 119 42h140v-148h-70c-28 0 -46 -3 -57 -14c-12 -12 -16 -31 -16 -64v-104
c0 -81 -54 -95 -73 -100c19 -5 73 -19 73 -100v-104c0 -33 4 -52 16 -64c11 -11 29 -14 57 -14h70v-148z" />
    <glyph glyph-name="bar" unicode="|" horiz-adv-x="364" 
d="M264 -74h-164v860h164v-860z" />
    <glyph glyph-name="braceright" unicode="}" horiz-adv-x="518" 
d="M478 282h-58c-26 0 -44 -6 -56 -18s-17 -32 -17 -60v-119c0 -41 -14 -83 -48 -117c-26 -26 -66 -42 -119 -42h-140v148h70c28 0 46 3 57 14c12 12 16 31 16 64v104c0 81 54 95 73 100c-19 5 -73 19 -73 100v104c0 33 -4 52 -16 64c-11 11 -29 14 -57 14h-70v148h140
c53 0 93 -16 119 -42c34 -34 48 -76 48 -117v-119c0 -28 5 -48 17 -60s30 -18 56 -18h58v-148z" />
    <glyph glyph-name="asciitilde" unicode="~" horiz-adv-x="646" 
d="M616 283c-65 -65 -116 -96 -187 -96c-45 0 -77 7 -123 34c-29 17 -54 25 -84 25c-27 0 -52 -5 -88 -41l-104 104c65 65 114 96 185 96c45 0 77 -7 123 -34c29 -17 54 -25 84 -25c27 0 52 5 88 41z" />
    <glyph glyph-name="uni00A0" unicode="&#xa0;" horiz-adv-x="222" 
 />
    <glyph glyph-name="exclamdown" unicode="&#xa1;" horiz-adv-x="366" 
d="M266 -174h-206l44 475h118zM247 377h-168v161h168v-161z" />
    <glyph glyph-name="cent" unicode="&#xa2;" horiz-adv-x="499" 
d="M481 174c-34 -34 -77 -63 -131 -76v-98h-126v98c-102 23 -186 108 -186 268s84 245 186 268v78h126v-78c54 -13 97 -42 131 -76l-107 -107c-12 12 -25 25 -44 33v-236c19 8 32 21 44 33zM244 250v232c-4 -3 -8 -6 -12 -10c-19 -20 -30 -55 -30 -106s11 -85 29 -105
c4 -4 8 -8 13 -11z" />
    <glyph glyph-name="sterling" unicode="&#xa3;" horiz-adv-x="597" 
d="M557 0h-462v278h-60v126h60v64c0 169 134 250 268 250c83 0 136 -20 194 -78l-115 -114c-22 22 -40 36 -79 36c-54 0 -93 -30 -93 -98v-60h93v-126h-93v-122h287v-156z" />
    <glyph glyph-name="currency" unicode="&#xa4;" horiz-adv-x="674" 
d="M627 114l-109 -109l-73 73c-33 -16 -69 -26 -108 -26s-75 10 -108 26l-73 -73l-109 109l73 73c-16 33 -26 69 -26 108s10 75 26 108l-73 73l109 109l73 -73c33 16 69 26 108 26s75 -10 108 -26l73 73l109 -109l-73 -73c16 -33 26 -69 26 -108s-10 -75 -26 -108zM432 295
c0 52 -43 95 -95 95s-95 -43 -95 -95s43 -95 95 -95s95 43 95 95z" />
    <glyph glyph-name="yen" unicode="&#xa5;" horiz-adv-x="605" 
d="M605 712l-125 -246h60v-126h-125l-25 -50v-50h150v-126h-150v-114h-175v114h-150v126h150v50l-25 50h-125v126h60l-125 246h191l112 -256l111 256h191z" />
    <glyph glyph-name="brokenbar" unicode="&#xa6;" horiz-adv-x="364" 
d="M264 436h-164v350h164v-350zM264 -74h-164v350h164v-350z" />
    <glyph glyph-name="section" unicode="&#xa7;" horiz-adv-x="516" 
d="M475 285c0 -70 -53 -121 -81 -140c36 -22 71 -56 71 -135c0 -135 -109 -190 -206 -190s-206 47 -206 187h156c0 -22 18 -44 50 -44c33 0 50 20 50 41c0 16 -7 39 -59 58l-54 20c-100 37 -151 77 -151 191c0 70 53 121 83 140c-33 20 -66 53 -66 126c0 85 54 179 199 179
c146 0 199 -86 199 -181h-152c0 31 -22 42 -47 42c-34 0 -47 -19 -47 -35c0 -18 17 -34 56 -48l54 -20c100 -37 151 -77 151 -191zM319 279c0 32 -12 46 -20 53c-7 6 -20 13 -39 13s-32 -7 -39 -13c-8 -7 -20 -21 -20 -53s12 -46 20 -53c7 -6 20 -13 39 -13s32 7 39 13
c8 7 20 21 20 53z" />
    <glyph glyph-name="dieresis" unicode="&#xa8;" horiz-adv-x="500" 
d="M430 609h-134v145h134v-145zM204 609h-134v145h134v-145z" />
    <glyph glyph-name="copyright" unicode="&#xa9;" horiz-adv-x="822" 
d="M773 356c0 -200 -162 -362 -362 -362s-362 162 -362 362s162 362 362 362s362 -162 362 -362zM670 356c0 156 -111 265 -259 265s-259 -109 -259 -265s111 -265 259 -265s259 109 259 265zM552 216c-36 -31 -77 -52 -132 -52c-90 0 -181 57 -181 192s91 192 181 192
c55 0 96 -21 132 -52l-67 -67c-23 19 -39 27 -65 27c-46 0 -78 -33 -78 -100s32 -100 78 -100c26 0 42 8 65 27z" />
    <glyph glyph-name="ordfeminine" unicode="&#xaa;" horiz-adv-x="457" 
d="M407 283h-128v35c-26 -26 -50 -39 -96 -39c-43 0 -78 15 -102 39c-25 25 -38 60 -38 100c0 65 44 125 146 125h87v11c0 39 -19 54 -65 54c-34 0 -47 -8 -68 -29l-82 82c44 44 84 57 157 57c123 0 189 -51 189 -156v-279zM276 444v12h-66c-26 0 -40 -15 -40 -34
s14 -35 41 -35c26 0 39 2 52 15c9 9 13 21 13 42z" />
    <glyph glyph-name="guillemotleft" unicode="&#xab;" horiz-adv-x="672" 
d="M303 9l-273 271l273 270v-193l-79 -77l79 -78v-193zM612 9l-273 271l273 270v-193l-81 -77l81 -78v-193z" />
    <glyph glyph-name="logicalnot" unicode="&#xac;" 
d="M513 88h-154v150h-316v154h470v-304z" />
    <glyph glyph-name="uni00AD" unicode="&#xad;" horiz-adv-x="426" 
d="M377 218h-328v154h328v-154z" />
    <glyph glyph-name="registered" unicode="&#xae;" horiz-adv-x="822" 
d="M773 356c0 -200 -162 -362 -362 -362s-362 162 -362 362s162 362 362 362s362 -162 362 -362zM670 356c0 156 -111 265 -259 265s-259 -109 -259 -265s111 -265 259 -265s259 109 259 265zM580 167h-117l-57 141h-31v-141h-103v378h169c84 0 129 -60 129 -122
c0 -51 -31 -83 -61 -98zM467 423c0 20 -15 38 -40 38h-52v-76h52c25 0 40 18 40 38z" />
    <glyph glyph-name="macron" unicode="&#xaf;" horiz-adv-x="500" 
d="M413 629h-326v105h326v-105z" />
    <glyph glyph-name="degree" unicode="&#xb0;" horiz-adv-x="486" 
d="M439 534c0 -108 -88 -196 -196 -196s-196 88 -196 196s88 196 196 196s196 -88 196 -196zM308 534c0 36 -29 65 -65 65s-65 -29 -65 -65s29 -65 65 -65s65 29 65 65z" />
    <glyph glyph-name="plusminus" unicode="&#xb1;" 
d="M507 371h-152v-152h-154v152h-152v154h152v152h154v-152h152v-154zM507 0h-458v154h458v-154z" />
    <glyph glyph-name="twosuperior" unicode="&#xb2;" horiz-adv-x="340" 
d="M316 285h-287v104l151 154c16 16 22 24 22 40c0 17 -11 29 -29 29c-11 0 -28 -4 -28 -30h-116c0 89 68 134 144 134c82 0 143 -49 143 -133c0 -48 -21 -74 -59 -111l-87 -83h146v-104z" />
    <glyph glyph-name="threesuperior" unicode="&#xb3;" horiz-adv-x="340" 
d="M320 416c0 -93 -71 -135 -148 -135c-72 0 -147 37 -147 140h115c0 -23 13 -36 32 -36c20 0 32 12 32 35c0 18 -15 34 -33 34h-16v99h16c22 0 30 19 30 29c0 20 -14 30 -28 30s-28 -9 -28 -31h-116c0 84 66 135 144 135c82 0 143 -55 143 -130c0 -48 -23 -67 -40 -80
c17 -16 44 -40 44 -90z" />
    <glyph glyph-name="acute" unicode="&#xb4;" horiz-adv-x="500" 
d="M427 790l-101 -180h-117l65 180h153z" />
    <glyph glyph-name="mu" unicode="&#xb5;" horiz-adv-x="584" 
d="M522 0h-160v44c-33 -33 -82 -50 -125 -50h-11v-168h-164v712h164v-322c0 -62 44 -74 66 -74s66 12 66 74v322h164v-538z" />
    <glyph glyph-name="paragraph" unicode="&#xb6;" horiz-adv-x="707" 
d="M635 -174h-164v730h-90v-730h-164v472c-89 0 -187 87 -187 205c0 145 103 209 241 209h364v-886z" />
    <glyph glyph-name="periodcentered" unicode="&#xb7;" horiz-adv-x="294" 
d="M237 205h-180v180h180v-180z" />
    <glyph glyph-name="cedilla" unicode="&#xb8;" horiz-adv-x="500" 
d="M334 -53l-36 -144h-146l67 144h115z" />
    <glyph glyph-name="onesuperior" unicode="&#xb9;" horiz-adv-x="340" 
d="M258 285h-116v297l-95 -82v130l95 82h116v-427z" />
    <glyph glyph-name="ordmasculine" unicode="&#xba;" horiz-adv-x="466" 
d="M419 498c0 -85 -12 -126 -48 -165c-25 -27 -69 -55 -138 -55s-113 28 -138 55c-36 39 -48 80 -48 165c0 84 12 126 48 165c25 27 69 55 138 55s113 -28 138 -55c36 -39 48 -81 48 -165zM287 498c0 42 -2 73 -19 90c-8 8 -19 12 -35 12s-27 -4 -35 -12
c-17 -17 -19 -48 -19 -90s2 -73 19 -90c8 -8 19 -12 35 -12s27 4 35 12c17 17 19 48 19 90z" />
    <glyph glyph-name="guillemotright" unicode="&#xbb;" horiz-adv-x="672" 
d="M642 280l-273 -271v193l79 78l-79 77v193zM333 280l-273 -271v193l80 78l-80 77v193z" />
    <glyph glyph-name="onequarter" unicode="&#xbc;" horiz-adv-x="901" 
d="M258 285h-116v297l-95 -82v130l95 82h116v-427zM683 712l-339 -712h-126l339 712h126zM893 55h-26v-55h-114v55h-179v104l138 268h127l-141 -268h55v41h114v-41h26v-104z" />
    <glyph glyph-name="onehalf" unicode="&#xbd;" horiz-adv-x="901" 
d="M258 285h-116v297l-95 -82v130l95 82h116v-427zM683 712l-339 -712h-126l339 712h126zM877 0h-287v104l151 154c16 16 22 24 22 40c0 17 -11 29 -29 29c-11 0 -28 -4 -28 -30h-116c0 89 68 134 144 134c82 0 143 -49 143 -133c0 -48 -21 -74 -59 -111l-87 -83h146v-104z
" />
    <glyph glyph-name="threequarters" unicode="&#xbe;" horiz-adv-x="901" 
d="M320 416c0 -93 -71 -135 -148 -135c-72 0 -147 37 -147 140h115c0 -23 13 -36 32 -36c20 0 32 12 32 35c0 18 -15 34 -33 34h-16v99h16c22 0 30 19 30 29c0 20 -14 30 -28 30s-28 -9 -28 -31h-116c0 84 66 135 144 135c82 0 143 -55 143 -130c0 -48 -23 -67 -40 -80
c17 -16 44 -40 44 -90zM683 712l-339 -712h-126l339 712h126zM893 55h-26v-55h-114v55h-179v104l138 268h127l-141 -268h55v41h114v-41h26v-104z" />
    <glyph glyph-name="questiondown" unicode="&#xbf;" horiz-adv-x="538" 
d="M478 31c0 -136 -103 -211 -224 -211c-118 0 -224 71 -224 210c0 52 23 92 51 128l69 87c9 11 18 30 18 47v9h164v-23c0 -45 -11 -76 -41 -111l-70 -82c-15 -17 -27 -40 -27 -56c0 -35 20 -61 60 -61c42 0 60 27 60 63h164zM334 377h-168v161h168v-161z" />
    <glyph glyph-name="Agrave" unicode="&#xc0;" horiz-adv-x="653" 
d="M653 0h-183l-33 106h-219l-35 -106h-183l259 712h135zM391 252l-60 190l-64 -190h124zM393 782h-117l-101 180h153z" />
    <glyph glyph-name="Aacute" unicode="&#xc1;" horiz-adv-x="653" 
d="M653 0h-183l-33 106h-219l-35 -106h-183l259 712h135zM391 252l-60 190l-64 -190h124zM477 962l-101 -180h-117l65 180h153z" />
    <glyph glyph-name="Acircumflex" unicode="&#xc2;" horiz-adv-x="653" 
d="M653 0h-183l-33 106h-219l-35 -106h-183l259 712h135zM391 252l-60 190l-64 -190h124zM527 782h-122l-79 83l-79 -83h-122l136 179h130z" />
    <glyph glyph-name="Atilde" unicode="&#xc3;" horiz-adv-x="653" 
d="M653 0h-183l-33 106h-219l-35 -106h-183l259 712h135zM391 252l-60 190l-64 -190h124zM519 851c-43 -43 -76 -63 -123 -63c-30 0 -51 4 -81 22c-19 11 -36 17 -56 17c-18 0 -34 -3 -58 -27l-68 69c43 43 75 63 122 63c30 0 51 -4 81 -22c19 -11 35 -17 55 -17
c18 0 34 3 58 27z" />
    <glyph glyph-name="Adieresis" unicode="&#xc4;" horiz-adv-x="653" 
d="M653 0h-183l-33 106h-219l-35 -106h-183l259 712h135zM391 252l-60 190l-64 -190h124zM506 781h-134v145h134v-145zM280 781h-134v145h134v-145z" />
    <glyph glyph-name="Aring" unicode="&#xc5;" horiz-adv-x="653" 
d="M653 0h-183l-33 106h-219l-35 -106h-183l259 712h135zM391 252l-60 190l-64 -190h124zM464 893c0 -76 -62 -138 -138 -138s-138 62 -138 138s62 138 138 138s138 -61 138 -138zM378 893c0 28 -24 52 -52 52s-52 -24 -52 -52s24 -52 52 -52s52 24 52 52z" />
    <glyph glyph-name="AE" unicode="&#xc6;" horiz-adv-x="1013" 
d="M961 0h-484v149h-212l-77 -149h-188l370 712h591v-156h-309v-119h264v-156h-264v-125h309v-156zM477 295v261l-136 -261h136z" />
    <glyph glyph-name="Ccedilla" unicode="&#xc7;" horiz-adv-x="609" 
d="M589 226c-26 -157 -134 -232 -269 -232c-87 0 -147 27 -198 78c-73 73 -73 164 -73 284s0 211 73 284c51 51 111 78 198 78c135 0 243 -75 269 -232h-178c-11 40 -33 76 -91 76c-32 0 -56 -13 -69 -30c-16 -21 -27 -46 -27 -176s11 -155 27 -176c13 -17 37 -30 69 -30
c58 0 80 36 91 76h178zM386 -53l-36 -144h-146l67 144h115z" />
    <glyph glyph-name="Egrave" unicode="&#xc8;" horiz-adv-x="608" 
d="M556 0h-484v712h484v-156h-309v-119h264v-156h-264v-125h309v-156zM375 782h-117l-101 180h153z" />
    <glyph glyph-name="Eacute" unicode="&#xc9;" horiz-adv-x="608" 
d="M556 0h-484v712h484v-156h-309v-119h264v-156h-264v-125h309v-156zM459 962l-101 -180h-117l65 180h153z" />
    <glyph glyph-name="Ecircumflex" unicode="&#xca;" horiz-adv-x="608" 
d="M556 0h-484v712h484v-156h-309v-119h264v-156h-264v-125h309v-156zM509 782h-122l-79 83l-79 -83h-122l136 179h130z" />
    <glyph glyph-name="Edieresis" unicode="&#xcb;" horiz-adv-x="608" 
d="M556 0h-484v712h484v-156h-309v-119h264v-156h-264v-125h309v-156zM488 781h-134v145h134v-145zM262 781h-134v145h134v-145z" />
    <glyph glyph-name="Igrave" unicode="&#xcc;" horiz-adv-x="319" 
d="M247 0h-175v712h175v-712zM227 782h-117l-101 180h153z" />
    <glyph glyph-name="Iacute" unicode="&#xcd;" horiz-adv-x="319" 
d="M247 0h-175v712h175v-712zM310 962l-101 -180h-117l65 180h153z" />
    <glyph glyph-name="Icircumflex" unicode="&#xce;" horiz-adv-x="319" 
d="M247 0h-175v712h175v-712zM362 782h-122l-79 83l-79 -83h-122l136 179h130z" />
    <glyph glyph-name="Idieresis" unicode="&#xcf;" horiz-adv-x="319" 
d="M247 0h-175v712h175v-712zM341 781h-134v145h134v-145zM115 781h-134v145h134v-145z" />
    <glyph glyph-name="Eth" unicode="&#xd0;" horiz-adv-x="679" 
d="M455 356c0 120 -5 140 -19 160c-16 24 -40 40 -84 40h-77v-130h90v-134h-90v-136h77c44 0 68 16 84 40c14 20 19 39 19 160zM630 356c0 -123 0 -179 -35 -236c-49 -79 -124 -120 -231 -120h-264v292h-65v134h65v286h264c107 0 182 -41 231 -120c35 -57 35 -113 35 -236z
" />
    <glyph glyph-name="Ntilde" unicode="&#xd1;" horiz-adv-x="700" 
d="M628 0h-153l-228 358v-358h-175v712h153l228 -358v358h175v-712zM543 851c-43 -43 -76 -63 -123 -63c-30 0 -51 4 -81 22c-19 11 -36 17 -56 17c-18 0 -34 -3 -58 -27l-68 69c43 43 75 63 122 63c30 0 51 -4 81 -22c19 -11 35 -17 55 -17c18 0 34 3 58 27z" />
    <glyph glyph-name="Ograve" unicode="&#xd2;" horiz-adv-x="640" 
d="M591 356c0 -120 0 -211 -73 -284c-51 -51 -111 -78 -198 -78s-147 27 -198 78c-73 73 -73 164 -73 284s0 211 73 284c51 51 111 78 198 78s147 -27 198 -78c73 -73 73 -164 73 -284zM416 356c0 130 -10 154 -26 175c-13 17 -38 31 -70 31s-57 -14 -70 -31
c-16 -21 -26 -45 -26 -175s10 -153 26 -174c13 -17 38 -32 70 -32s57 15 70 32c16 21 26 44 26 174zM387 782h-117l-101 180h153z" />
    <glyph glyph-name="Oacute" unicode="&#xd3;" horiz-adv-x="640" 
d="M591 356c0 -120 0 -211 -73 -284c-51 -51 -111 -78 -198 -78s-147 27 -198 78c-73 73 -73 164 -73 284s0 211 73 284c51 51 111 78 198 78s147 -27 198 -78c73 -73 73 -164 73 -284zM416 356c0 130 -10 154 -26 175c-13 17 -38 31 -70 31s-57 -14 -70 -31
c-16 -21 -26 -45 -26 -175s10 -153 26 -174c13 -17 38 -32 70 -32s57 15 70 32c16 21 26 44 26 174zM471 962l-101 -180h-117l65 180h153z" />
    <glyph glyph-name="Ocircumflex" unicode="&#xd4;" horiz-adv-x="640" 
d="M591 356c0 -120 0 -211 -73 -284c-51 -51 -111 -78 -198 -78s-147 27 -198 78c-73 73 -73 164 -73 284s0 211 73 284c51 51 111 78 198 78s147 -27 198 -78c73 -73 73 -164 73 -284zM416 356c0 130 -10 154 -26 175c-13 17 -38 31 -70 31s-57 -14 -70 -31
c-16 -21 -26 -45 -26 -175s10 -153 26 -174c13 -17 38 -32 70 -32s57 15 70 32c16 21 26 44 26 174zM521 782h-122l-79 83l-79 -83h-122l136 179h130z" />
    <glyph glyph-name="Otilde" unicode="&#xd5;" horiz-adv-x="640" 
d="M591 356c0 -120 0 -211 -73 -284c-51 -51 -111 -78 -198 -78s-147 27 -198 78c-73 73 -73 164 -73 284s0 211 73 284c51 51 111 78 198 78s147 -27 198 -78c73 -73 73 -164 73 -284zM416 356c0 130 -10 154 -26 175c-13 17 -38 31 -70 31s-57 -14 -70 -31
c-16 -21 -26 -45 -26 -175s10 -153 26 -174c13 -17 38 -32 70 -32s57 15 70 32c16 21 26 44 26 174zM513 851c-43 -43 -76 -63 -123 -63c-30 0 -51 4 -81 22c-19 11 -36 17 -56 17c-18 0 -34 -3 -58 -27l-68 69c43 43 75 63 122 63c30 0 51 -4 81 -22c19 -11 35 -17 55 -17
c18 0 34 3 58 27z" />
    <glyph glyph-name="Odieresis" unicode="&#xd6;" horiz-adv-x="640" 
d="M591 356c0 -120 0 -211 -73 -284c-51 -51 -111 -78 -198 -78s-147 27 -198 78c-73 73 -73 164 -73 284s0 211 73 284c51 51 111 78 198 78s147 -27 198 -78c73 -73 73 -164 73 -284zM416 356c0 130 -10 154 -26 175c-13 17 -38 31 -70 31s-57 -14 -70 -31
c-16 -21 -26 -45 -26 -175s10 -153 26 -174c13 -17 38 -32 70 -32s57 15 70 32c16 21 26 44 26 174zM500 781h-134v145h134v-145zM274 781h-134v145h134v-145z" />
    <glyph glyph-name="multiply" unicode="&#xd7;" 
d="M517 161l-104 -104l-135 135l-134 -135l-105 104l136 134l-136 135l104 104l134 -135l135 135l105 -104l-136 -135z" />
    <glyph glyph-name="Oslash" unicode="&#xd8;" horiz-adv-x="640" 
d="M591 356c0 -120 0 -211 -73 -284c-51 -51 -111 -78 -198 -78c-40 0 -75 6 -105 18l-27 -56h-118l55 113c-76 76 -76 167 -76 287s0 211 73 284c51 51 111 78 198 78c40 0 75 -6 105 -18l27 56h118l-54 -114c75 -75 75 -166 75 -286zM416 356c0 40 -1 70 -3 93l-137 -288
c12 -7 27 -11 44 -11c32 0 57 15 70 32c16 21 26 44 26 174zM364 552c-12 6 -27 10 -44 10c-32 0 -57 -14 -70 -31c-16 -21 -26 -45 -26 -175c0 -40 1 -70 3 -93z" />
    <glyph glyph-name="Ugrave" unicode="&#xd9;" horiz-adv-x="660" 
d="M600 250c0 -156 -123 -256 -271 -256s-269 100 -269 256v462h175v-458c0 -66 36 -104 94 -104s96 38 96 104v458h175v-462zM397 782h-117l-101 180h153z" />
    <glyph glyph-name="Uacute" unicode="&#xda;" horiz-adv-x="660" 
d="M600 250c0 -156 -123 -256 -271 -256s-269 100 -269 256v462h175v-458c0 -66 36 -104 94 -104s96 38 96 104v458h175v-462zM481 962l-101 -180h-117l65 180h153z" />
    <glyph glyph-name="Ucircumflex" unicode="&#xdb;" horiz-adv-x="660" 
d="M600 250c0 -156 -123 -256 -271 -256s-269 100 -269 256v462h175v-458c0 -66 36 -104 94 -104s96 38 96 104v458h175v-462zM531 782h-122l-79 83l-79 -83h-122l136 179h130z" />
    <glyph glyph-name="Udieresis" unicode="&#xdc;" horiz-adv-x="660" 
d="M600 250c0 -156 -123 -256 -271 -256s-269 100 -269 256v462h175v-458c0 -66 36 -104 94 -104s96 38 96 104v458h175v-462zM510 781h-134v145h134v-145zM284 781h-134v145h134v-145z" />
    <glyph glyph-name="Yacute" unicode="&#xdd;" horiz-adv-x="605" 
d="M605 712l-215 -422v-290h-175v290l-215 422h191l112 -256l111 256h191zM453 962l-101 -180h-117l65 180h153z" />
    <glyph glyph-name="Thorn" unicode="&#xde;" horiz-adv-x="627" 
d="M597 360c0 -117 -85 -229 -243 -229h-107v-131h-175v712h175v-123h107c158 0 243 -112 243 -229zM422 360c0 37 -28 72 -76 72h-99v-144h99c48 0 76 35 76 72z" />
    <glyph glyph-name="germandbls" unicode="&#xdf;" horiz-adv-x="584" 
d="M534 173c0 -55 -13 -98 -42 -128c-29 -29 -73 -45 -138 -45h-52v138h19c15 0 27 4 35 12c9 8 13 21 13 36v129c0 16 -4 27 -12 35c-8 9 -21 13 -36 13h-19v126h23c21 0 44 8 44 42c0 12 -4 22 -12 29c-11 10 -31 15 -55 15c-59 0 -75 -24 -75 -70v-505h-165v519
c0 147 107 199 240 199c137 0 232 -56 232 -181c0 -65 -35 -94 -61 -109c31 -15 61 -40 61 -103v-152z" />
    <glyph glyph-name="agrave" unicode="&#xe0;" horiz-adv-x="536" 
d="M483 0h-160v44c-33 -33 -63 -49 -120 -49c-54 0 -99 18 -129 48c-31 31 -47 76 -47 126c0 81 55 156 186 156h106v14c0 49 -24 67 -81 67c-37 0 -59 -12 -85 -38l-102 102c55 55 104 74 195 74c154 0 237 -64 237 -195v-349zM319 202v14h-78c-38 0 -57 -17 -57 -44
c0 -25 19 -44 59 -44c27 0 42 4 59 19c13 12 17 27 17 55zM332 610h-117l-101 180h153z" />
    <glyph glyph-name="aacute" unicode="&#xe1;" horiz-adv-x="536" 
d="M483 0h-160v44c-33 -33 -63 -49 -120 -49c-54 0 -99 18 -129 48c-31 31 -47 76 -47 126c0 81 55 156 186 156h106v14c0 49 -24 67 -81 67c-37 0 -59 -12 -85 -38l-102 102c55 55 104 74 195 74c154 0 237 -64 237 -195v-349zM319 202v14h-78c-38 0 -57 -17 -57 -44
c0 -25 19 -44 59 -44c27 0 42 4 59 19c13 12 17 27 17 55zM418 790l-101 -180h-117l65 180h153z" />
    <glyph glyph-name="acircumflex" unicode="&#xe2;" horiz-adv-x="536" 
d="M483 0h-160v44c-33 -33 -63 -49 -120 -49c-54 0 -99 18 -129 48c-31 31 -47 76 -47 126c0 81 55 156 186 156h106v14c0 49 -24 67 -81 67c-37 0 -59 -12 -85 -38l-102 102c55 55 104 74 195 74c154 0 237 -64 237 -195v-349zM319 202v14h-78c-38 0 -57 -17 -57 -44
c0 -25 19 -44 59 -44c27 0 42 4 59 19c13 12 17 27 17 55zM467 610h-122l-79 83l-79 -83h-122l136 179h130z" />
    <glyph glyph-name="atilde" unicode="&#xe3;" horiz-adv-x="536" 
d="M483 0h-160v44c-33 -33 -63 -49 -120 -49c-54 0 -99 18 -129 48c-31 31 -47 76 -47 126c0 81 55 156 186 156h106v14c0 49 -24 67 -81 67c-37 0 -59 -12 -85 -38l-102 102c55 55 104 74 195 74c154 0 237 -64 237 -195v-349zM319 202v14h-78c-38 0 -57 -17 -57 -44
c0 -25 19 -44 59 -44c27 0 42 4 59 19c13 12 17 27 17 55zM459 679c-43 -43 -76 -63 -123 -63c-30 0 -51 4 -81 22c-19 11 -36 17 -56 17c-18 0 -34 -3 -58 -27l-68 69c43 43 75 63 122 63c30 0 51 -4 81 -22c19 -11 35 -17 55 -17c18 0 34 3 58 27z" />
    <glyph glyph-name="adieresis" unicode="&#xe4;" horiz-adv-x="536" 
d="M483 0h-160v44c-33 -33 -63 -49 -120 -49c-54 0 -99 18 -129 48c-31 31 -47 76 -47 126c0 81 55 156 186 156h106v14c0 49 -24 67 -81 67c-37 0 -59 -12 -85 -38l-102 102c55 55 104 74 195 74c154 0 237 -64 237 -195v-349zM319 202v14h-78c-38 0 -57 -17 -57 -44
c0 -25 19 -44 59 -44c27 0 42 4 59 19c13 12 17 27 17 55zM220 609h-134v145h134v-145zM446 609h-134v145h134v-145z" />
    <glyph glyph-name="aring" unicode="&#xe5;" horiz-adv-x="536" 
d="M483 0h-160v44c-33 -33 -63 -49 -120 -49c-54 0 -99 18 -129 48c-31 31 -47 76 -47 126c0 81 55 156 186 156h106v14c0 49 -24 67 -81 67c-37 0 -59 -12 -85 -38l-102 102c55 55 104 74 195 74c154 0 237 -64 237 -195v-349zM319 202v14h-78c-38 0 -57 -17 -57 -44
c0 -25 19 -44 59 -44c27 0 42 4 59 19c13 12 17 27 17 55zM404 731c0 -76 -62 -138 -138 -138s-138 62 -138 138s62 138 138 138s138 -61 138 -138zM318 731c0 28 -24 52 -52 52s-52 -24 -52 -52s24 -52 52 -52s52 24 52 52z" />
    <glyph glyph-name="ae" unicode="&#xe6;" horiz-adv-x="840" 
d="M802 216h-322c0 -44 34 -84 95 -84c57 0 82 16 111 45l98 -98c-55 -55 -109 -85 -209 -85c-66 0 -137 14 -188 65c-65 -60 -118 -65 -184 -65c-54 0 -98 18 -129 49s-47 76 -47 126c0 81 55 156 186 156h106v14c0 49 -24 67 -81 67c-37 0 -59 -12 -85 -38l-102 102
c55 55 104 74 195 74c74 0 131 -15 170 -45c39 30 88 45 144 45c156 0 242 -112 242 -260v-68zM640 325c0 13 -2 27 -9 42c-10 22 -32 42 -71 42s-61 -20 -71 -42c-7 -15 -9 -29 -9 -42h160zM319 202v14h-78c-38 0 -57 -17 -57 -44c0 -25 19 -44 59 -44c27 0 42 4 59 19
c13 12 17 27 17 55z" />
    <glyph glyph-name="ccedilla" unicode="&#xe7;" horiz-adv-x="475" 
d="M457 63c-44 -44 -102 -69 -177 -69c-93 0 -242 40 -242 275s149 275 242 275c75 0 133 -25 177 -69l-111 -111c-21 21 -39 32 -66 32c-22 0 -37 -7 -51 -21c-19 -20 -27 -55 -27 -106s8 -86 27 -106c14 -14 29 -21 51 -21c27 0 45 11 66 32zM334 -53l-36 -144h-146
l67 144h115z" />
    <glyph glyph-name="egrave" unicode="&#xe8;" horiz-adv-x="559" 
d="M521 216h-322c0 -44 34 -84 95 -84c57 0 82 16 111 45l98 -98c-55 -55 -109 -85 -209 -85c-119 0 -256 43 -256 275c0 176 100 275 241 275c156 0 242 -112 242 -260v-68zM359 325c0 13 -2 27 -9 42c-10 22 -32 42 -71 42s-61 -20 -71 -42c-7 -15 -9 -29 -9 -42h160z
M349 610h-117l-101 180h153z" />
    <glyph glyph-name="eacute" unicode="&#xe9;" horiz-adv-x="559" 
d="M521 216h-322c0 -44 34 -84 95 -84c57 0 82 16 111 45l98 -98c-55 -55 -109 -85 -209 -85c-119 0 -256 43 -256 275c0 176 100 275 241 275c156 0 242 -112 242 -260v-68zM359 325c0 13 -2 27 -9 42c-10 22 -32 42 -71 42s-61 -20 -71 -42c-7 -15 -9 -29 -9 -42h160z
M435 790l-101 -180h-117l65 180h153z" />
    <glyph glyph-name="ecircumflex" unicode="&#xea;" horiz-adv-x="559" 
d="M521 216h-322c0 -44 34 -84 95 -84c57 0 82 16 111 45l98 -98c-55 -55 -109 -85 -209 -85c-119 0 -256 43 -256 275c0 176 100 275 241 275c156 0 242 -112 242 -260v-68zM359 325c0 13 -2 27 -9 42c-10 22 -32 42 -71 42s-61 -20 -71 -42c-7 -15 -9 -29 -9 -42h160z
M484 610h-122l-79 83l-79 -83h-122l136 179h130z" />
    <glyph glyph-name="edieresis" unicode="&#xeb;" horiz-adv-x="559" 
d="M521 216h-322c0 -44 34 -84 95 -84c57 0 82 16 111 45l98 -98c-55 -55 -109 -85 -209 -85c-119 0 -256 43 -256 275c0 176 100 275 241 275c156 0 242 -112 242 -260v-68zM359 325c0 13 -2 27 -9 42c-10 22 -32 42 -71 42s-61 -20 -71 -42c-7 -15 -9 -29 -9 -42h160z
M237 609h-134v145h134v-145zM463 609h-134v145h134v-145z" />
    <glyph glyph-name="igrave" unicode="&#xec;" horiz-adv-x="288" 
d="M226 0h-164v517h164v-517zM226 610h-117l-101 180h153z" />
    <glyph glyph-name="iacute" unicode="&#xed;" horiz-adv-x="288" 
d="M226 0h-164v517h164v-517zM280 790l-101 -180h-117l65 180h153z" />
    <glyph glyph-name="icircumflex" unicode="&#xee;" horiz-adv-x="288" 
d="M226 0h-164v517h164v-517zM347 610h-122l-79 83l-79 -83h-122l136 179h130z" />
    <glyph glyph-name="idieresis" unicode="&#xef;" horiz-adv-x="288" 
d="M226 0h-164v517h164v-517zM100 609h-134v145h134v-145zM326 609h-134v145h134v-145z" />
    <glyph glyph-name="eth" unicode="&#xf0;" horiz-adv-x="550" 
d="M499 259c0 -102 -13 -152 -57 -199c-31 -33 -83 -66 -167 -66s-136 33 -167 66c-44 47 -57 97 -57 199c0 101 13 152 57 199c15 16 39 34 69 47c22 10 48 17 77 18l-20 40h-113v114h57l-22 46h176l22 -46h97v-114h-41l26 -57c44 -97 63 -143 63 -247zM335 259
c0 49 -2 84 -21 103c-9 9 -21 14 -39 14s-30 -5 -39 -14c-19 -19 -21 -54 -21 -103s2 -84 21 -103c9 -9 21 -14 39 -14s30 5 39 14c19 19 21 54 21 103z" />
    <glyph glyph-name="ntilde" unicode="&#xf1;" horiz-adv-x="579" 
d="M522 0h-164v322c0 62 -44 74 -66 74s-66 -12 -66 -74v-322h-164v538h160v-44c33 33 82 50 125 50c51 0 92 -17 121 -46c46 -46 54 -97 54 -154v-344zM485 679c-43 -43 -76 -63 -123 -63c-30 0 -51 4 -81 22c-19 11 -36 17 -56 17c-18 0 -34 -3 -58 -27l-68 69
c43 43 75 63 122 63c30 0 51 -4 81 -22c19 -11 35 -17 55 -17c18 0 34 3 58 27z" />
    <glyph glyph-name="ograve" unicode="&#xf2;" horiz-adv-x="550" 
d="M507 269c0 -106 -14 -157 -59 -206c-32 -34 -86 -69 -173 -69s-141 35 -173 69c-45 49 -59 100 -59 206c0 105 14 157 59 206c32 34 86 69 173 69s141 -35 173 -69c45 -49 59 -101 59 -206zM343 269c0 53 -3 91 -24 112c-10 10 -24 15 -44 15s-34 -5 -44 -15
c-21 -21 -24 -59 -24 -112s3 -91 24 -112c10 -10 24 -15 44 -15s34 5 44 15c21 21 24 59 24 112zM341 610h-117l-101 180h153z" />
    <glyph glyph-name="oacute" unicode="&#xf3;" horiz-adv-x="550" 
d="M507 269c0 -106 -14 -157 -59 -206c-32 -34 -86 -69 -173 -69s-141 35 -173 69c-45 49 -59 100 -59 206c0 105 14 157 59 206c32 34 86 69 173 69s141 -35 173 -69c45 -49 59 -101 59 -206zM343 269c0 53 -3 91 -24 112c-10 10 -24 15 -44 15s-34 -5 -44 -15
c-21 -21 -24 -59 -24 -112s3 -91 24 -112c10 -10 24 -15 44 -15s34 5 44 15c21 21 24 59 24 112zM427 790l-101 -180h-117l65 180h153z" />
    <glyph glyph-name="ocircumflex" unicode="&#xf4;" horiz-adv-x="550" 
d="M507 269c0 -106 -14 -157 -59 -206c-32 -34 -86 -69 -173 -69s-141 35 -173 69c-45 49 -59 100 -59 206c0 105 14 157 59 206c32 34 86 69 173 69s141 -35 173 -69c45 -49 59 -101 59 -206zM343 269c0 53 -3 91 -24 112c-10 10 -24 15 -44 15s-34 -5 -44 -15
c-21 -21 -24 -59 -24 -112s3 -91 24 -112c10 -10 24 -15 44 -15s34 5 44 15c21 21 24 59 24 112zM476 610h-122l-79 83l-79 -83h-122l136 179h130z" />
    <glyph glyph-name="otilde" unicode="&#xf5;" horiz-adv-x="550" 
d="M507 269c0 -106 -14 -157 -59 -206c-32 -34 -86 -69 -173 -69s-141 35 -173 69c-45 49 -59 100 -59 206c0 105 14 157 59 206c32 34 86 69 173 69s141 -35 173 -69c45 -49 59 -101 59 -206zM343 269c0 53 -3 91 -24 112c-10 10 -24 15 -44 15s-34 -5 -44 -15
c-21 -21 -24 -59 -24 -112s3 -91 24 -112c10 -10 24 -15 44 -15s34 5 44 15c21 21 24 59 24 112zM468 679c-43 -43 -76 -63 -123 -63c-30 0 -51 4 -81 22c-19 11 -36 17 -56 17c-18 0 -34 -3 -58 -27l-68 69c43 43 75 63 122 63c30 0 51 -4 81 -22c19 -11 35 -17 55 -17
c18 0 34 3 58 27z" />
    <glyph glyph-name="odieresis" unicode="&#xf6;" horiz-adv-x="550" 
d="M507 269c0 -106 -14 -157 -59 -206c-32 -34 -86 -69 -173 -69s-141 35 -173 69c-45 49 -59 100 -59 206c0 105 14 157 59 206c32 34 86 69 173 69s141 -35 173 -69c45 -49 59 -101 59 -206zM343 269c0 53 -3 91 -24 112c-10 10 -24 15 -44 15s-34 -5 -44 -15
c-21 -21 -24 -59 -24 -112s3 -91 24 -112c10 -10 24 -15 44 -15s34 5 44 15c21 21 24 59 24 112zM229 609h-134v145h134v-145zM455 609h-134v145h134v-145z" />
    <glyph glyph-name="divide" unicode="&#xf7;" 
d="M356 0h-156v156h156v-156zM513 218h-470v154h470v-154zM356 434h-156v156h156v-156z" />
    <glyph glyph-name="oslash" unicode="&#xf8;" horiz-adv-x="550" 
d="M507 269c0 -106 -14 -157 -59 -206c-32 -34 -86 -69 -173 -69c-42 0 -76 8 -104 20l-34 -58h-93l61 104c-59 62 -62 127 -62 209c0 105 14 157 59 206c32 34 86 69 173 69c42 0 76 -8 104 -20l34 58h93l-61 -104c58 -61 62 -128 62 -209zM343 269c0 19 0 36 -2 50
l-100 -170c9 -5 20 -7 34 -7c20 0 34 5 44 15c21 21 24 59 24 112zM309 389c-9 5 -20 7 -34 7c-20 0 -34 -5 -44 -15c-21 -21 -24 -59 -24 -112c0 -19 0 -36 2 -50z" />
    <glyph glyph-name="ugrave" unicode="&#xf9;" horiz-adv-x="579" 
d="M517 0h-160v44c-33 -33 -82 -50 -125 -50c-51 0 -92 17 -121 46c-46 46 -54 97 -54 154v344h164v-322c0 -62 44 -74 66 -74s66 12 66 74v322h164v-538zM353 610h-117l-101 180h153z" />
    <glyph glyph-name="uacute" unicode="&#xfa;" horiz-adv-x="579" 
d="M517 0h-160v44c-33 -33 -82 -50 -125 -50c-51 0 -92 17 -121 46c-46 46 -54 97 -54 154v344h164v-322c0 -62 44 -74 66 -74s66 12 66 74v322h164v-538zM439 790l-101 -180h-117l65 180h153z" />
    <glyph glyph-name="ucircumflex" unicode="&#xfb;" horiz-adv-x="579" 
d="M517 0h-160v44c-33 -33 -82 -50 -125 -50c-51 0 -92 17 -121 46c-46 46 -54 97 -54 154v344h164v-322c0 -62 44 -74 66 -74s66 12 66 74v322h164v-538zM488 610h-122l-79 83l-79 -83h-122l136 179h130z" />
    <glyph glyph-name="udieresis" unicode="&#xfc;" horiz-adv-x="579" 
d="M517 0h-160v44c-33 -33 -82 -50 -125 -50c-51 0 -92 17 -121 46c-46 46 -54 97 -54 154v344h164v-322c0 -62 44 -74 66 -74s66 12 66 74v322h164v-538zM241 609h-134v145h134v-145zM467 609h-134v145h134v-145z" />
    <glyph glyph-name="yacute" unicode="&#xfd;" horiz-adv-x="514" 
d="M522 538l-223 -602c-11 -31 -25 -54 -42 -71c-32 -34 -73 -45 -121 -45h-62v148h35c29 0 44 7 55 40l15 45l-179 485h172l91 -279l87 279h172zM414 790l-101 -180h-117l65 180h153z" />
    <glyph glyph-name="thorn" unicode="&#xfe;" horiz-adv-x="571" 
d="M526 269c0 -93 -1 -174 -51 -226c-31 -32 -77 -49 -129 -49c-53 0 -90 15 -120 45v-213h-164v886h164v-213c30 30 67 45 120 45c52 0 98 -17 129 -49c50 -52 51 -133 51 -226zM362 269c0 78 -7 127 -68 127s-68 -49 -68 -127s7 -127 68 -127s68 49 68 127z" />
    <glyph glyph-name="ydieresis" unicode="&#xff;" horiz-adv-x="514" 
d="M522 538l-223 -602c-11 -31 -25 -54 -42 -71c-32 -34 -73 -45 -121 -45h-62v148h35c29 0 44 7 55 40l15 45l-179 485h172l91 -279l87 279h172zM216 609h-134v145h134v-145zM442 609h-134v145h134v-145z" />
    <glyph glyph-name="Amacron" unicode="&#x100;" horiz-adv-x="653" 
d="M653 0h-183l-33 106h-219l-35 -106h-183l259 712h135zM391 252l-60 190l-64 -190h124zM489 791h-326v105h326v-105z" />
    <glyph glyph-name="amacron" unicode="&#x101;" horiz-adv-x="536" 
d="M483 0h-160v44c-33 -33 -63 -49 -120 -49c-54 0 -99 18 -129 48c-31 31 -47 76 -47 126c0 81 55 156 186 156h106v14c0 49 -24 67 -81 67c-37 0 -59 -12 -85 -38l-102 102c55 55 104 74 195 74c154 0 237 -64 237 -195v-349zM319 202v14h-78c-38 0 -57 -17 -57 -44
c0 -25 19 -44 59 -44c27 0 42 4 59 19c13 12 17 27 17 55zM429 629h-326v105h326v-105z" />
    <glyph glyph-name="Abreve" unicode="&#x102;" horiz-adv-x="653" 
d="M653 0h-183l-33 106h-219l-35 -106h-183l259 712h135zM391 252l-60 190l-64 -190h124zM490 931c-3 -118 -87 -157 -164 -157s-161 39 -164 157h106c3 -37 33 -47 58 -47s55 10 58 47h106z" />
    <glyph glyph-name="abreve" unicode="&#x103;" horiz-adv-x="536" 
d="M483 0h-160v44c-33 -33 -63 -49 -120 -49c-54 0 -99 18 -129 48c-31 31 -47 76 -47 126c0 81 55 156 186 156h106v14c0 49 -24 67 -81 67c-37 0 -59 -12 -85 -38l-102 102c55 55 104 74 195 74c154 0 237 -64 237 -195v-349zM319 202v14h-78c-38 0 -57 -17 -57 -44
c0 -25 19 -44 59 -44c27 0 42 4 59 19c13 12 17 27 17 55zM430 759c-3 -118 -87 -157 -164 -157s-161 39 -164 157h106c3 -37 33 -47 58 -47s55 10 58 47h106z" />
    <glyph glyph-name="Aogonek" unicode="&#x104;" horiz-adv-x="653" 
d="M653 0h-183l-33 106h-219l-35 -106h-183l259 712h135zM391 252l-60 190l-64 -190h124zM585 -56l-36 -144h-146l67 144h115z" />
    <glyph glyph-name="aogonek" unicode="&#x105;" horiz-adv-x="536" 
d="M483 0h-160v44c-33 -33 -63 -49 -120 -49c-54 0 -99 18 -129 48c-31 31 -47 76 -47 126c0 81 55 156 186 156h106v14c0 49 -24 67 -81 67c-37 0 -59 -12 -85 -38l-102 102c55 55 104 74 195 74c154 0 237 -64 237 -195v-349zM319 202v14h-78c-38 0 -57 -17 -57 -44
c0 -25 19 -44 59 -44c27 0 42 4 59 19c13 12 17 27 17 55zM438 -56l-36 -144h-146l67 144h115z" />
    <glyph glyph-name="Cacute" unicode="&#x106;" horiz-adv-x="609" 
d="M589 226c-26 -157 -134 -232 -269 -232c-87 0 -147 27 -198 78c-73 73 -73 164 -73 284s0 211 73 284c51 51 111 78 198 78c135 0 243 -75 269 -232h-178c-11 40 -33 76 -91 76c-32 0 -56 -13 -69 -30c-16 -21 -27 -46 -27 -176s11 -155 27 -176c13 -17 37 -30 69 -30
c58 0 80 36 91 76h178zM455 962l-101 -180h-117l65 180h153z" />
    <glyph glyph-name="cacute" unicode="&#x107;" horiz-adv-x="475" 
d="M457 63c-44 -44 -102 -69 -177 -69c-93 0 -242 40 -242 275s149 275 242 275c75 0 133 -25 177 -69l-111 -111c-21 21 -39 32 -66 32c-22 0 -37 -7 -51 -21c-19 -20 -27 -55 -27 -106s8 -86 27 -106c14 -14 29 -21 51 -21c27 0 45 11 66 32zM427 790l-101 -180h-117
l65 180h153z" />
    <glyph glyph-name="Ccircumflex" unicode="&#x108;" horiz-adv-x="609" 
d="M589 226c-26 -157 -134 -232 -269 -232c-87 0 -147 27 -198 78c-73 73 -73 164 -73 284s0 211 73 284c51 51 111 78 198 78c135 0 243 -75 269 -232h-178c-11 40 -33 76 -91 76c-32 0 -56 -13 -69 -30c-16 -21 -27 -46 -27 -176s11 -155 27 -176c13 -17 37 -30 69 -30
c58 0 80 36 91 76h178zM520 782h-122l-79 83l-79 -83h-122l136 179h130z" />
    <glyph glyph-name="ccircumflex" unicode="&#x109;" horiz-adv-x="475" 
d="M457 63c-44 -44 -102 -69 -177 -69c-93 0 -242 40 -242 275s149 275 242 275c75 0 133 -25 177 -69l-111 -111c-21 21 -39 32 -66 32c-22 0 -37 -7 -51 -21c-19 -20 -27 -55 -27 -106s8 -86 27 -106c14 -14 29 -21 51 -21c27 0 45 11 66 32zM481 610h-122l-79 83l-79 -83
h-122l136 179h130z" />
    <glyph glyph-name="Cdotaccent" unicode="&#x10a;" horiz-adv-x="609" 
d="M589 226c-26 -157 -134 -232 -269 -232c-87 0 -147 27 -198 78c-73 73 -73 164 -73 284s0 211 73 284c51 51 111 78 198 78c135 0 243 -75 269 -232h-178c-11 40 -33 76 -91 76c-32 0 -56 -13 -69 -30c-16 -21 -27 -46 -27 -176s11 -155 27 -176c13 -17 37 -30 69 -30
c58 0 80 36 91 76h178zM386 785h-138v138h138v-138z" />
    <glyph glyph-name="cdotaccent" unicode="&#x10b;" horiz-adv-x="475" 
d="M457 63c-44 -44 -102 -69 -177 -69c-93 0 -242 40 -242 275s149 275 242 275c75 0 133 -25 177 -69l-111 -111c-21 21 -39 32 -66 32c-22 0 -37 -7 -51 -21c-19 -20 -27 -55 -27 -106s8 -86 27 -106c14 -14 29 -21 51 -21c27 0 45 11 66 32zM349 613h-138v138h138v-138z
" />
    <glyph glyph-name="Ccaron" unicode="&#x10c;" horiz-adv-x="609" 
d="M589 226c-26 -157 -134 -232 -269 -232c-87 0 -147 27 -198 78c-73 73 -73 164 -73 284s0 211 73 284c51 51 111 78 198 78c135 0 243 -75 269 -232h-178c-11 40 -33 76 -91 76c-32 0 -56 -13 -69 -30c-16 -21 -27 -46 -27 -176s11 -155 27 -176c13 -17 37 -30 69 -30
c58 0 80 36 91 76h178zM520 961l-136 -179h-130l-136 179h122l79 -83l79 83h122z" />
    <glyph glyph-name="ccaron" unicode="&#x10d;" horiz-adv-x="475" 
d="M457 63c-44 -44 -102 -69 -177 -69c-93 0 -242 40 -242 275s149 275 242 275c75 0 133 -25 177 -69l-111 -111c-21 21 -39 32 -66 32c-22 0 -37 -7 -51 -21c-19 -20 -27 -55 -27 -106s8 -86 27 -106c14 -14 29 -21 51 -21c27 0 45 11 66 32zM481 789l-136 -179h-130
l-136 179h122l79 -83l79 83h122z" />
    <glyph glyph-name="Dcaron" unicode="&#x10e;" horiz-adv-x="651" 
d="M602 356c0 -123 0 -179 -35 -236c-49 -79 -124 -120 -231 -120h-264v712h264c107 0 182 -41 231 -120c35 -57 35 -113 35 -236zM427 356c0 120 -5 140 -19 160c-16 24 -40 40 -84 40h-77v-400h77c44 0 68 16 84 40c14 20 19 39 19 160zM526 961l-136 -179h-130l-136 179
h122l79 -83l79 83h122z" />
    <glyph glyph-name="dcaron" unicode="&#x10f;" horiz-adv-x="569" 
d="M526 0h-159v44c-33 -33 -68 -50 -124 -50c-52 0 -99 17 -130 49c-50 52 -51 133 -51 226s1 174 51 226c31 32 77 49 129 49c53 0 90 -15 120 -45v213h164v-712zM362 269c0 78 -7 127 -68 127s-68 -49 -68 -127s7 -127 68 -127s68 49 68 127zM739 753l-64 -173h-110
l34 173h140z" />
    <glyph glyph-name="Dcroat" unicode="&#x110;" horiz-adv-x="679" 
d="M455 356c0 120 -5 140 -19 160c-16 24 -40 40 -84 40h-77v-130h90v-134h-90v-136h77c44 0 68 16 84 40c14 20 19 39 19 160zM630 356c0 -123 0 -179 -35 -236c-49 -79 -124 -120 -231 -120h-264v292h-65v134h65v286h264c107 0 182 -41 231 -120c35 -57 35 -113 35 -236z
" />
    <glyph glyph-name="dcroat" unicode="&#x111;" horiz-adv-x="597" 
d="M507 0h-159v44c-33 -33 -68 -50 -124 -50c-52 0 -99 17 -130 49c-50 52 -51 133 -51 226s1 174 51 226c31 32 77 49 129 49c53 0 90 -15 120 -45v65h-68v102h68v46h164v-46h44v-102h-44v-564zM343 269c0 78 -7 127 -68 127s-68 -49 -68 -127s7 -127 68 -127s68 49 68 127
z" />
    <glyph glyph-name="Emacron" unicode="&#x112;" horiz-adv-x="608" 
d="M556 0h-484v712h484v-156h-309v-119h264v-156h-264v-125h309v-156zM467 791h-326v105h326v-105z" />
    <glyph glyph-name="emacron" unicode="&#x113;" horiz-adv-x="559" 
d="M521 216h-322c0 -44 34 -84 95 -84c57 0 82 16 111 45l98 -98c-55 -55 -109 -85 -209 -85c-119 0 -256 43 -256 275c0 176 100 275 241 275c156 0 242 -112 242 -260v-68zM359 325c0 13 -2 27 -9 42c-10 22 -32 42 -71 42s-61 -20 -71 -42c-7 -15 -9 -29 -9 -42h160z
M446 629h-326v105h326v-105z" />
    <glyph glyph-name="Ebreve" unicode="&#x114;" horiz-adv-x="608" 
d="M556 0h-484v712h484v-156h-309v-119h264v-156h-264v-125h309v-156zM473 931c-3 -118 -87 -157 -164 -157s-161 39 -164 157h106c3 -37 33 -47 58 -47s55 10 58 47h106z" />
    <glyph glyph-name="ebreve" unicode="&#x115;" horiz-adv-x="559" 
d="M521 216h-322c0 -44 34 -84 95 -84c57 0 82 16 111 45l98 -98c-55 -55 -109 -85 -209 -85c-119 0 -256 43 -256 275c0 176 100 275 241 275c156 0 242 -112 242 -260v-68zM359 325c0 13 -2 27 -9 42c-10 22 -32 42 -71 42s-61 -20 -71 -42c-7 -15 -9 -29 -9 -42h160z
M447 759c-3 -118 -87 -157 -164 -157s-161 39 -164 157h106c3 -37 33 -47 58 -47s55 10 58 47h106z" />
    <glyph glyph-name="Edotaccent" unicode="&#x116;" horiz-adv-x="608" 
d="M556 0h-484v712h484v-156h-309v-119h264v-156h-264v-125h309v-156zM373 785h-138v138h138v-138z" />
    <glyph glyph-name="edotaccent" unicode="&#x117;" horiz-adv-x="559" 
d="M521 216h-322c0 -44 34 -84 95 -84c57 0 82 16 111 45l98 -98c-55 -55 -109 -85 -209 -85c-119 0 -256 43 -256 275c0 176 100 275 241 275c156 0 242 -112 242 -260v-68zM359 325c0 13 -2 27 -9 42c-10 22 -32 42 -71 42s-61 -20 -71 -42c-7 -15 -9 -29 -9 -42h160z
M352 613h-138v138h138v-138z" />
    <glyph glyph-name="Eogonek" unicode="&#x118;" horiz-adv-x="608" 
d="M556 0h-484v712h484v-156h-309v-119h264v-156h-264v-125h309v-156zM556 -56l-36 -144h-146l67 144h115z" />
    <glyph glyph-name="eogonek" unicode="&#x119;" horiz-adv-x="559" 
d="M521 216h-322c0 -44 34 -84 95 -84c57 0 82 16 111 45l98 -98c-55 -55 -109 -85 -209 -85c-119 0 -256 43 -256 275c0 176 100 275 241 275c156 0 242 -112 242 -260v-68zM359 325c0 13 -2 27 -9 42c-10 22 -32 42 -71 42s-61 -20 -71 -42c-7 -15 -9 -29 -9 -42h160z
M430 -56l-36 -144h-146l67 144h115z" />
    <glyph glyph-name="Ecaron" unicode="&#x11a;" horiz-adv-x="608" 
d="M556 0h-484v712h484v-156h-309v-119h264v-156h-264v-125h309v-156zM505 961l-136 -179h-130l-136 179h122l79 -83l79 83h122z" />
    <glyph glyph-name="ecaron" unicode="&#x11b;" horiz-adv-x="559" 
d="M521 216h-322c0 -44 34 -84 95 -84c57 0 82 16 111 45l98 -98c-55 -55 -109 -85 -209 -85c-119 0 -256 43 -256 275c0 176 100 275 241 275c156 0 242 -112 242 -260v-68zM359 325c0 13 -2 27 -9 42c-10 22 -32 42 -71 42s-61 -20 -71 -42c-7 -15 -9 -29 -9 -42h160z
M481 789l-136 -179h-130l-136 179h122l79 -83l79 83h122z" />
    <glyph glyph-name="Gcircumflex" unicode="&#x11c;" horiz-adv-x="647" 
d="M598 311c0 -115 -18 -182 -72 -237c-61 -63 -129 -80 -207 -80c-86 0 -146 27 -197 78c-73 73 -73 164 -73 284s0 211 73 284c51 51 111 78 197 78c183 0 261 -119 278 -236h-176c-14 54 -42 80 -102 80c-32 0 -56 -14 -69 -31c-16 -21 -26 -45 -26 -175s10 -155 26 -176
c13 -17 37 -30 69 -30c37 0 62 11 78 28c20 20 27 49 27 76v10h-105v146h279v-99zM520 782h-122l-79 83l-79 -83h-122l136 179h130z" />
    <glyph glyph-name="gcircumflex" unicode="&#x11d;" horiz-adv-x="561" 
d="M499 39c0 -127 -96 -219 -243 -219c-84 0 -147 15 -202 70l102 102c25 -25 55 -34 92 -34c69 0 87 47 87 82v39c-30 -30 -66 -45 -116 -45c-52 0 -95 17 -126 48c-49 49 -50 109 -50 207s1 158 50 207c31 31 75 48 127 48c55 0 87 -17 120 -50v44h159v-499zM335 289
c0 55 -4 107 -64 107s-64 -52 -64 -107s4 -107 64 -107s64 52 64 107zM472 610h-122l-79 83l-79 -83h-122l136 179h130z" />
    <glyph glyph-name="Gbreve" unicode="&#x11e;" horiz-adv-x="647" 
d="M598 311c0 -115 -18 -182 -72 -237c-61 -63 -129 -80 -207 -80c-86 0 -146 27 -197 78c-73 73 -73 164 -73 284s0 211 73 284c51 51 111 78 197 78c183 0 261 -119 278 -236h-176c-14 54 -42 80 -102 80c-32 0 -56 -14 -69 -31c-16 -21 -26 -45 -26 -175s10 -155 26 -176
c13 -17 37 -30 69 -30c37 0 62 11 78 28c20 20 27 49 27 76v10h-105v146h279v-99zM483 931c-3 -118 -87 -157 -164 -157s-161 39 -164 157h106c3 -37 33 -47 58 -47s55 10 58 47h106z" />
    <glyph glyph-name="gbreve" unicode="&#x11f;" horiz-adv-x="561" 
d="M499 39c0 -127 -96 -219 -243 -219c-84 0 -147 15 -202 70l102 102c25 -25 55 -34 92 -34c69 0 87 47 87 82v39c-30 -30 -66 -45 -116 -45c-52 0 -95 17 -126 48c-49 49 -50 109 -50 207s1 158 50 207c31 31 75 48 127 48c55 0 87 -17 120 -50v44h159v-499zM335 289
c0 55 -4 107 -64 107s-64 -52 -64 -107s4 -107 64 -107s64 52 64 107zM435 759c-3 -118 -87 -157 -164 -157s-161 39 -164 157h106c3 -37 33 -47 58 -47s55 10 58 47h106z" />
    <glyph glyph-name="Gdotaccent" unicode="&#x120;" horiz-adv-x="647" 
d="M598 311c0 -115 -18 -182 -72 -237c-61 -63 -129 -80 -207 -80c-86 0 -146 27 -197 78c-73 73 -73 164 -73 284s0 211 73 284c51 51 111 78 197 78c183 0 261 -119 278 -236h-176c-14 54 -42 80 -102 80c-32 0 -56 -14 -69 -31c-16 -21 -26 -45 -26 -175s10 -155 26 -176
c13 -17 37 -30 69 -30c37 0 62 11 78 28c20 20 27 49 27 76v10h-105v146h279v-99zM388 785h-138v138h138v-138z" />
    <glyph glyph-name="gdotaccent" unicode="&#x121;" horiz-adv-x="561" 
d="M499 39c0 -127 -96 -219 -243 -219c-84 0 -147 15 -202 70l102 102c25 -25 55 -34 92 -34c69 0 87 47 87 82v39c-30 -30 -66 -45 -116 -45c-52 0 -95 17 -126 48c-49 49 -50 109 -50 207s1 158 50 207c31 31 75 48 127 48c55 0 87 -17 120 -50v44h159v-499zM335 289
c0 55 -4 107 -64 107s-64 -52 -64 -107s4 -107 64 -107s64 52 64 107zM340 613h-138v138h138v-138z" />
    <glyph glyph-name="Gcommaaccent" unicode="&#x122;" horiz-adv-x="647" 
d="M598 311c0 -115 -18 -182 -72 -237c-61 -63 -129 -80 -207 -80c-86 0 -146 27 -197 78c-73 73 -73 164 -73 284s0 211 73 284c51 51 111 78 197 78c183 0 261 -119 278 -236h-176c-14 54 -42 80 -102 80c-32 0 -56 -14 -69 -31c-16 -21 -26 -45 -26 -175s10 -155 26 -176
c13 -17 37 -30 69 -30c37 0 62 11 78 28c20 20 27 49 27 76v10h-105v146h279v-99zM406 -53l-36 -144h-146l67 144h115z" />
    <glyph glyph-name="gcommaaccent" unicode="&#x123;" horiz-adv-x="561" 
d="M499 39c0 -127 -96 -219 -243 -219c-84 0 -147 15 -202 70l102 102c25 -25 55 -34 92 -34c69 0 87 47 87 82v39c-30 -30 -66 -45 -116 -45c-52 0 -95 17 -126 48c-49 49 -50 109 -50 207s1 158 50 207c31 31 75 48 127 48c55 0 87 -17 120 -50v44h159v-499zM335 289
c0 55 -4 107 -64 107s-64 -52 -64 -107s4 -107 64 -107s64 52 64 107zM439 790l-118 -180h-99l49 180h168z" />
    <glyph glyph-name="Hcircumflex" unicode="&#x124;" horiz-adv-x="680" 
d="M608 0h-175v282h-186v-282h-175v712h175v-274h186v274h175v-712zM541 782h-122l-79 83l-79 -83h-122l136 179h130z" />
    <glyph glyph-name="hcircumflex" unicode="&#x125;" horiz-adv-x="579" 
d="M522 0h-164v322c0 62 -44 74 -66 74s-66 -12 -66 -74v-322h-164v712h164v-218c32 33 76 50 121 50c51 0 92 -17 121 -46c46 -46 54 -97 54 -154v-344zM345 782h-122l-79 83l-79 -83h-122l136 179h130z" />
    <glyph glyph-name="Hbar" unicode="&#x126;" horiz-adv-x="738" 
d="M636 0h-175v282h-186v-282h-175v504h-65v134h65v74h175v-74h186v74h175v-74h67v-134h-67v-504zM461 438v66h-186v-66h186z" />
    <glyph glyph-name="hbar" unicode="&#x127;" horiz-adv-x="607" 
d="M550 0h-164v322c0 62 -44 74 -66 74s-66 -12 -66 -74v-322h-164v564h-44v102h44v46h164v-46h63v-102h-63v-70c32 33 76 50 121 50c51 0 92 -17 121 -46c46 -46 54 -97 54 -154v-344z" />
    <glyph glyph-name="Itilde" unicode="&#x128;" horiz-adv-x="319" 
d="M247 0h-175v712h175v-712zM354 851c-43 -43 -76 -63 -123 -63c-30 0 -51 4 -81 22c-19 11 -36 17 -56 17c-18 0 -34 -3 -58 -27l-68 69c43 43 75 63 122 63c30 0 51 -4 81 -22c19 -11 35 -17 55 -17c18 0 34 3 58 27z" />
    <glyph glyph-name="itilde" unicode="&#x129;" horiz-adv-x="288" 
d="M226 0h-164v517h164v-517zM339 679c-43 -43 -76 -63 -123 -63c-30 0 -51 4 -81 22c-19 11 -36 17 -56 17c-18 0 -34 -3 -58 -27l-68 69c43 43 75 63 122 63c30 0 51 -4 81 -22c19 -11 35 -17 55 -17c18 0 34 3 58 27z" />
    <glyph glyph-name="Imacron" unicode="&#x12a;" horiz-adv-x="319" 
d="M247 0h-175v712h175v-712zM323 791h-326v105h326v-105z" />
    <glyph glyph-name="imacron" unicode="&#x12b;" horiz-adv-x="288" 
d="M226 0h-164v517h164v-517zM307 629h-326v105h326v-105z" />
    <glyph glyph-name="Ibreve" unicode="&#x12c;" horiz-adv-x="319" 
d="M247 0h-175v712h175v-712zM325 931c-3 -118 -87 -157 -164 -157s-161 39 -164 157h106c3 -37 33 -47 58 -47s55 10 58 47h106z" />
    <glyph glyph-name="ibreve" unicode="&#x12d;" horiz-adv-x="288" 
d="M226 0h-164v517h164v-517zM310 759c-3 -118 -87 -157 -164 -157s-161 39 -164 157h106c3 -37 33 -47 58 -47s55 10 58 47h106z" />
    <glyph glyph-name="Iogonek" unicode="&#x12e;" horiz-adv-x="319" 
d="M247 0h-175v712h175v-712zM187 -56l-36 -144h-146l67 144h115z" />
    <glyph glyph-name="iogonek" unicode="&#x12f;" horiz-adv-x="288" 
d="M226 0h-164v517h164v-517zM226 593h-164v125h164v-125zM177 -56l-36 -144h-146l67 144h115z" />
    <glyph glyph-name="Idotaccent" unicode="&#x130;" horiz-adv-x="319" 
d="M247 0h-175v712h175v-712zM228 785h-138v138h138v-138z" />
    <glyph glyph-name="dotlessi" unicode="&#x131;" horiz-adv-x="288" 
d="M226 0h-164v517h164v-517z" />
    <glyph glyph-name="IJ" unicode="&#x132;" horiz-adv-x="835" 
d="M247 0h-175v712h175v-712zM773 244c0 -169 -134 -250 -268 -250c-83 0 -136 20 -194 78l115 114c22 -22 40 -36 79 -36c54 0 93 30 93 98v464h175v-468z" />
    <glyph glyph-name="ij" unicode="&#x133;" horiz-adv-x="576" 
d="M226 0h-164v517h164v-517zM226 593h-164v125h164v-125zM514 -21c0 -74 -48 -159 -167 -159h-87v138h57c22 0 33 12 33 33v526h164v-538zM514 593h-164v125h164v-125z" />
    <glyph glyph-name="Jcircumflex" unicode="&#x134;" horiz-adv-x="516" 
d="M454 244c0 -169 -134 -250 -268 -250c-83 0 -136 20 -194 78l115 114c22 -22 40 -36 79 -36c54 0 93 30 93 98v464h175v-468zM567 782h-122l-79 83l-79 -83h-122l136 179h130z" />
    <glyph glyph-name="jcircumflex" unicode="&#x135;" horiz-adv-x="288" 
d="M226 -21c0 -74 -48 -159 -167 -159h-87v138h57c22 0 33 12 33 33v526h164v-538zM345 610h-122l-79 83l-79 -83h-122l136 179h130z" />
    <glyph glyph-name="Kcommaaccent" unicode="&#x136;" horiz-adv-x="673" 
d="M673 0h-204l-164 292l-60 -69v-223h-173v712h173v-252l206 252h214l-243 -288zM419 -53l-36 -144h-146l67 144h115z" />
    <glyph glyph-name="kcommaaccent" unicode="&#x137;" horiz-adv-x="573" 
d="M573 0h-203l-112 197l-32 -35v-162h-164v712h164v-362l145 188h197l-198 -223zM369 -53l-36 -144h-146l67 144h115z" />
    <glyph glyph-name="kgreenlandic" unicode="&#x138;" horiz-adv-x="573" 
d="M573 0h-203l-112 197l-32 -35v-162h-164v538h164v-188l145 188h197l-198 -223z" />
    <glyph glyph-name="Lacute" unicode="&#x139;" horiz-adv-x="576" 
d="M546 0h-474v712h175v-556h299v-156zM310 962l-101 -180h-117l65 180h153z" />
    <glyph glyph-name="lacute" unicode="&#x13a;" horiz-adv-x="341" 
d="M311 0h-87c-119 0 -167 85 -167 159v553h164v-541c0 -21 11 -33 33 -33h57v-138zM275 962l-101 -180h-117l65 180h153z" />
    <glyph glyph-name="Lcommaaccent" unicode="&#x13b;" horiz-adv-x="576" 
d="M546 0h-474v712h175v-556h299v-156zM371 -53l-36 -144h-146l67 144h115z" />
    <glyph glyph-name="lcommaaccent" unicode="&#x13c;" horiz-adv-x="341" 
d="M311 0h-87c-119 0 -167 85 -167 159v553h164v-541c0 -21 11 -33 33 -33h57v-138zM254 -53l-36 -144h-146l67 144h115z" />
    <glyph glyph-name="Lcaron" unicode="&#x13d;" horiz-adv-x="576" 
d="M546 0h-474v712h175v-556h299v-156zM504 712l-64 -173h-110l34 173h140z" />
    <glyph glyph-name="lcaron" unicode="&#x13e;" horiz-adv-x="341" 
d="M311 0h-87c-119 0 -167 85 -167 159v553h164v-541c0 -21 11 -33 33 -33h57v-138zM453 753l-64 -173h-110l34 173h140z" />
    <glyph glyph-name="Ldot" unicode="&#x13f;" horiz-adv-x="576" 
d="M546 0h-474v712h175v-556h299v-156zM512 289h-138v138h138v-138z" />
    <glyph glyph-name="ldot" unicode="&#x140;" horiz-adv-x="463" 
d="M311 0h-87c-119 0 -167 85 -167 159v553h164v-541c0 -21 11 -33 33 -33h57v-138zM440 224h-138v138h138v-138z" />
    <glyph glyph-name="Lslash" unicode="&#x141;" horiz-adv-x="599" 
d="M569 0h-474v217l-60 -38v146l60 38v349h175v-239l113 71v-145l-113 -71v-172h299v-156z" />
    <glyph glyph-name="lslash" unicode="&#x142;" horiz-adv-x="348" 
d="M328 0h-87c-119 0 -167 85 -167 159v120l-49 -30v137l49 30v296h164v-198l49 30v-137l-49 -30v-206c0 -21 11 -33 33 -33h57v-138z" />
    <glyph glyph-name="Nacute" unicode="&#x143;" horiz-adv-x="700" 
d="M628 0h-153l-228 358v-358h-175v712h153l228 -358v358h175v-712zM501 962l-101 -180h-117l65 180h153z" />
    <glyph glyph-name="nacute" unicode="&#x144;" horiz-adv-x="579" 
d="M522 0h-164v322c0 62 -44 74 -66 74s-66 -12 -66 -74v-322h-164v538h160v-44c33 33 82 50 125 50c51 0 92 -17 121 -46c46 -46 54 -97 54 -154v-344zM439 790l-101 -180h-117l65 180h153z" />
    <glyph glyph-name="Ncommaaccent" unicode="&#x145;" horiz-adv-x="700" 
d="M628 0h-153l-228 358v-358h-175v712h153l228 -358v358h175v-712zM433 -53l-36 -144h-146l67 144h115z" />
    <glyph glyph-name="ncommaaccent" unicode="&#x146;" horiz-adv-x="579" 
d="M522 0h-164v322c0 62 -44 74 -66 74s-66 -12 -66 -74v-322h-164v538h160v-44c33 33 82 50 125 50c51 0 92 -17 121 -46c46 -46 54 -97 54 -154v-344zM372 -53l-36 -144h-146l67 144h115z" />
    <glyph glyph-name="Ncaron" unicode="&#x147;" horiz-adv-x="700" 
d="M628 0h-153l-228 358v-358h-175v712h153l228 -358v358h175v-712zM551 961l-136 -179h-130l-136 179h122l79 -83l79 83h122z" />
    <glyph glyph-name="ncaron" unicode="&#x148;" horiz-adv-x="579" 
d="M522 0h-164v322c0 62 -44 74 -66 74s-66 -12 -66 -74v-322h-164v538h160v-44c33 33 82 50 125 50c51 0 92 -17 121 -46c46 -46 54 -97 54 -154v-344zM493 789l-136 -179h-130l-136 179h122l79 -83l79 83h122z" />
    <glyph glyph-name="napostrophe" unicode="&#x149;" horiz-adv-x="579" 
d="M522 0h-164v322c0 62 -44 74 -66 74s-66 -12 -66 -74v-322h-164v538h160v-44c33 33 82 50 125 50c51 0 92 -17 121 -46c46 -46 54 -97 54 -154v-344zM61 639l-139 -101v215h139v-114z" />
    <glyph glyph-name="Eng" unicode="&#x14a;" horiz-adv-x="700" 
d="M628 -41c0 -74 -48 -159 -167 -159h-87v138h46c22 0 33 12 33 33v63l-206 324v-358h-175v712h153l228 -358v358h175v-753z" />
    <glyph glyph-name="eng" unicode="&#x14b;" horiz-adv-x="579" 
d="M522 -38c0 -74 -48 -159 -167 -159h-87v138h57c22 0 33 12 33 33v348c0 62 -44 74 -66 74s-66 -12 -66 -74v-322h-164v538h160v-44c33 33 82 50 125 50c51 0 92 -17 121 -46c46 -46 54 -97 54 -154v-382z" />
    <glyph glyph-name="Omacron" unicode="&#x14c;" horiz-adv-x="640" 
d="M591 356c0 -120 0 -211 -73 -284c-51 -51 -111 -78 -198 -78s-147 27 -198 78c-73 73 -73 164 -73 284s0 211 73 284c51 51 111 78 198 78s147 -27 198 -78c73 -73 73 -164 73 -284zM416 356c0 130 -10 154 -26 175c-13 17 -38 31 -70 31s-57 -14 -70 -31
c-16 -21 -26 -45 -26 -175s10 -153 26 -174c13 -17 38 -32 70 -32s57 15 70 32c16 21 26 44 26 174zM483 791h-326v105h326v-105z" />
    <glyph glyph-name="omacron" unicode="&#x14d;" horiz-adv-x="550" 
d="M507 269c0 -106 -14 -157 -59 -206c-32 -34 -86 -69 -173 -69s-141 35 -173 69c-45 49 -59 100 -59 206c0 105 14 157 59 206c32 34 86 69 173 69s141 -35 173 -69c45 -49 59 -101 59 -206zM343 269c0 53 -3 91 -24 112c-10 10 -24 15 -44 15s-34 -5 -44 -15
c-21 -21 -24 -59 -24 -112s3 -91 24 -112c10 -10 24 -15 44 -15s34 5 44 15c21 21 24 59 24 112zM438 629h-326v105h326v-105z" />
    <glyph glyph-name="Obreve" unicode="&#x14e;" horiz-adv-x="640" 
d="M591 356c0 -120 0 -211 -73 -284c-51 -51 -111 -78 -198 -78s-147 27 -198 78c-73 73 -73 164 -73 284s0 211 73 284c51 51 111 78 198 78s147 -27 198 -78c73 -73 73 -164 73 -284zM416 356c0 130 -10 154 -26 175c-13 17 -38 31 -70 31s-57 -14 -70 -31
c-16 -21 -26 -45 -26 -175s10 -153 26 -174c13 -17 38 -32 70 -32s57 15 70 32c16 21 26 44 26 174zM485 931c-3 -118 -87 -157 -164 -157s-161 39 -164 157h106c3 -37 33 -47 58 -47s55 10 58 47h106z" />
    <glyph glyph-name="obreve" unicode="&#x14f;" horiz-adv-x="550" 
d="M507 269c0 -106 -14 -157 -59 -206c-32 -34 -86 -69 -173 -69s-141 35 -173 69c-45 49 -59 100 -59 206c0 105 14 157 59 206c32 34 86 69 173 69s141 -35 173 -69c45 -49 59 -101 59 -206zM343 269c0 53 -3 91 -24 112c-10 10 -24 15 -44 15s-34 -5 -44 -15
c-21 -21 -24 -59 -24 -112s3 -91 24 -112c10 -10 24 -15 44 -15s34 5 44 15c21 21 24 59 24 112zM439 759c-3 -118 -87 -157 -164 -157s-161 39 -164 157h106c3 -37 33 -47 58 -47s55 10 58 47h106z" />
    <glyph glyph-name="Ohungarumlaut" unicode="&#x150;" horiz-adv-x="640" 
d="M591 356c0 -120 0 -211 -73 -284c-51 -51 -111 -78 -198 -78s-147 27 -198 78c-73 73 -73 164 -73 284s0 211 73 284c51 51 111 78 198 78s147 -27 198 -78c73 -73 73 -164 73 -284zM416 356c0 130 -10 154 -26 175c-13 17 -38 31 -70 31s-57 -14 -70 -31
c-16 -21 -26 -45 -26 -175s10 -153 26 -174c13 -17 38 -32 70 -32s57 15 70 32c16 21 26 44 26 174zM574 962l-101 -180h-117l65 180h153zM349 962l-101 -180h-117l65 180h153z" />
    <glyph glyph-name="ohungarumlaut" unicode="&#x151;" horiz-adv-x="550" 
d="M507 269c0 -106 -14 -157 -59 -206c-32 -34 -86 -69 -173 -69s-141 35 -173 69c-45 49 -59 100 -59 206c0 105 14 157 59 206c32 34 86 69 173 69s141 -35 173 -69c45 -49 59 -101 59 -206zM343 269c0 53 -3 91 -24 112c-10 10 -24 15 -44 15s-34 -5 -44 -15
c-21 -21 -24 -59 -24 -112s3 -91 24 -112c10 -10 24 -15 44 -15s34 5 44 15c21 21 24 59 24 112zM528 790l-101 -180h-117l65 180h153zM303 790l-101 -180h-117l65 180h153z" />
    <glyph glyph-name="OE" unicode="&#x152;" horiz-adv-x="952" 
d="M900 0h-484v26c-28 -26 -73 -32 -102 -32c-87 0 -141 24 -193 76c-72 72 -72 177 -72 286s0 214 72 286c52 52 107 76 194 76c29 0 73 -6 101 -32v26h484v-156h-309v-119h264v-156h-264v-125h309v-156zM416 356c0 130 -10 154 -26 175c-13 17 -38 31 -70 31
s-57 -14 -70 -31c-16 -21 -26 -45 -26 -175s10 -153 26 -174c13 -17 38 -32 70 -32s57 15 70 32c16 21 26 44 26 174z" />
    <glyph glyph-name="oe" unicode="&#x153;" horiz-adv-x="864" 
d="M826 216h-322c0 -44 34 -84 95 -84c57 0 82 16 111 45l98 -98c-55 -55 -109 -85 -209 -85c-59 0 -123 11 -171 50c-33 -27 -82 -50 -153 -50c-87 0 -141 35 -173 69c-45 49 -59 100 -59 206c0 105 14 157 59 206c32 34 86 69 173 69c73 0 123 -25 156 -53
c40 35 93 53 153 53c156 0 242 -114 242 -255v-73zM343 269c0 53 -3 91 -24 112c-10 10 -24 15 -44 15s-34 -5 -44 -15c-21 -21 -24 -59 -24 -112s3 -91 24 -112c10 -10 24 -15 44 -15s34 5 44 15c21 21 24 59 24 112zM664 325c0 13 -2 28 -9 42c-10 23 -32 42 -71 42
s-61 -19 -71 -42c-7 -14 -9 -29 -9 -42h160z" />
    <glyph glyph-name="Racute" unicode="&#x154;" horiz-adv-x="652" 
d="M635 0h-203l-126 265h-59v-265h-175v712h282c158 0 243 -112 243 -229c0 -97 -60 -158 -116 -186zM422 483c0 37 -28 72 -76 72h-99v-144h99c48 0 76 35 76 72zM477 962l-101 -180h-117l65 180h153z" />
    <glyph glyph-name="racute" unicode="&#x155;" horiz-adv-x="475" 
d="M475 494l-124 -126c-16 16 -31 28 -59 28c-22 0 -66 -13 -66 -74v-322h-164v538h160v-44c24 24 71 50 127 50c53 0 89 -13 126 -50zM390 790l-101 -180h-117l65 180h153z" />
    <glyph glyph-name="Rcommaaccent" unicode="&#x156;" horiz-adv-x="652" 
d="M635 0h-203l-126 265h-59v-265h-175v712h282c158 0 243 -112 243 -229c0 -97 -60 -158 -116 -186zM422 483c0 37 -28 72 -76 72h-99v-144h99c48 0 76 35 76 72zM409 -53l-36 -144h-146l67 144h115z" />
    <glyph glyph-name="rcommaaccent" unicode="&#x157;" horiz-adv-x="475" 
d="M475 494l-124 -126c-16 16 -31 28 -59 28c-22 0 -66 -13 -66 -74v-322h-164v538h160v-44c24 24 71 50 127 50c53 0 89 -13 126 -50zM202 -53l-36 -144h-146l67 144h115z" />
    <glyph glyph-name="Rcaron" unicode="&#x158;" horiz-adv-x="652" 
d="M635 0h-203l-126 265h-59v-265h-175v712h282c158 0 243 -112 243 -229c0 -97 -60 -158 -116 -186zM422 483c0 37 -28 72 -76 72h-99v-144h99c48 0 76 35 76 72zM527 961l-136 -179h-130l-136 179h122l79 -83l79 83h122z" />
    <glyph glyph-name="rcaron" unicode="&#x159;" horiz-adv-x="475" 
d="M475 494l-124 -126c-16 16 -31 28 -59 28c-22 0 -66 -13 -66 -74v-322h-164v538h160v-44c24 24 71 50 127 50c53 0 89 -13 126 -50zM439 789l-136 -179h-130l-136 179h122l79 -83l79 83h122z" />
    <glyph glyph-name="Sacute" unicode="&#x15a;" horiz-adv-x="593" 
d="M550 218c0 -145 -125 -224 -275 -224c-109 0 -198 20 -270 94l112 112c37 -37 102 -50 159 -50c69 0 102 23 102 64c0 17 -4 31 -14 42c-9 9 -24 16 -47 19l-86 12c-63 9 -111 30 -143 63c-33 34 -49 82 -49 143c0 130 98 225 260 225c102 0 179 -24 240 -85l-110 -110
c-37 37 -78 42 -135 42c-61 0 -86 -35 -86 -66c0 -9 3 -22 14 -33c9 -9 24 -18 49 -21l86 -12c64 -9 110 -29 140 -59c38 -37 53 -90 53 -156zM447 962l-101 -180h-117l65 180h153z" />
    <glyph glyph-name="sacute" unicode="&#x15b;" horiz-adv-x="504" 
d="M477 176c0 -127 -108 -182 -233 -182c-81 0 -160 4 -234 78l106 106c45 -45 103 -45 131 -45c24 0 70 7 70 35c0 15 -7 31 -39 34l-83 8c-93 9 -156 51 -156 156c0 119 107 178 214 178c88 0 159 -13 212 -66l-101 -101c-27 27 -72 32 -114 32c-40 0 -53 -19 -53 -31
c0 -16 8 -27 35 -30l83 -8c113 -11 162 -78 162 -164zM402 790l-101 -180h-117l65 180h153z" />
    <glyph glyph-name="Scircumflex" unicode="&#x15c;" horiz-adv-x="593" 
d="M550 218c0 -145 -125 -224 -275 -224c-109 0 -198 20 -270 94l112 112c37 -37 102 -50 159 -50c69 0 102 23 102 64c0 17 -4 31 -14 42c-9 9 -24 16 -47 19l-86 12c-63 9 -111 30 -143 63c-33 34 -49 82 -49 143c0 130 98 225 260 225c102 0 179 -24 240 -85l-110 -110
c-37 37 -78 42 -135 42c-61 0 -86 -35 -86 -66c0 -9 3 -22 14 -33c9 -9 24 -18 49 -21l86 -12c64 -9 110 -29 140 -59c38 -37 53 -90 53 -156zM498 782h-122l-79 83l-79 -83h-122l136 179h130z" />
    <glyph glyph-name="scircumflex" unicode="&#x15d;" horiz-adv-x="504" 
d="M477 176c0 -127 -108 -182 -233 -182c-81 0 -160 4 -234 78l106 106c45 -45 103 -45 131 -45c24 0 70 7 70 35c0 15 -7 31 -39 34l-83 8c-93 9 -156 51 -156 156c0 119 107 178 214 178c88 0 159 -13 212 -66l-101 -101c-27 27 -72 32 -114 32c-40 0 -53 -19 -53 -31
c0 -16 8 -27 35 -30l83 -8c113 -11 162 -78 162 -164zM466 610h-122l-79 83l-79 -83h-122l136 179h130z" />
    <glyph glyph-name="Scedilla" unicode="&#x15e;" horiz-adv-x="593" 
d="M550 218c0 -145 -125 -224 -275 -224c-109 0 -198 20 -270 94l112 112c37 -37 102 -50 159 -50c69 0 102 23 102 64c0 17 -4 31 -14 42c-9 9 -24 16 -47 19l-86 12c-63 9 -111 30 -143 63c-33 34 -49 82 -49 143c0 130 98 225 260 225c102 0 179 -24 240 -85l-110 -110
c-37 37 -78 42 -135 42c-61 0 -86 -35 -86 -66c0 -9 3 -22 14 -33c9 -9 24 -18 49 -21l86 -12c64 -9 110 -29 140 -59c38 -37 53 -90 53 -156zM368 -53l-36 -144h-146l67 144h115z" />
    <glyph glyph-name="scedilla" unicode="&#x15f;" horiz-adv-x="504" 
d="M477 176c0 -127 -108 -182 -233 -182c-81 0 -160 4 -234 78l106 106c45 -45 103 -45 131 -45c24 0 70 7 70 35c0 15 -7 31 -39 34l-83 8c-93 9 -156 51 -156 156c0 119 107 178 214 178c88 0 159 -13 212 -66l-101 -101c-27 27 -72 32 -114 32c-40 0 -53 -19 -53 -31
c0 -16 8 -27 35 -30l83 -8c113 -11 162 -78 162 -164zM333 -53l-36 -144h-146l67 144h115z" />
    <glyph glyph-name="Scaron" unicode="&#x160;" horiz-adv-x="593" 
d="M550 218c0 -145 -125 -224 -275 -224c-109 0 -198 20 -270 94l112 112c37 -37 102 -50 159 -50c69 0 102 23 102 64c0 17 -4 31 -14 42c-9 9 -24 16 -47 19l-86 12c-63 9 -111 30 -143 63c-33 34 -49 82 -49 143c0 130 98 225 260 225c102 0 179 -24 240 -85l-110 -110
c-37 37 -78 42 -135 42c-61 0 -86 -35 -86 -66c0 -9 3 -22 14 -33c9 -9 24 -18 49 -21l86 -12c64 -9 110 -29 140 -59c38 -37 53 -90 53 -156zM498 961l-136 -179h-130l-136 179h122l79 -83l79 83h122z" />
    <glyph glyph-name="scaron" unicode="&#x161;" horiz-adv-x="504" 
d="M477 176c0 -127 -108 -182 -233 -182c-81 0 -160 4 -234 78l106 106c45 -45 103 -45 131 -45c24 0 70 7 70 35c0 15 -7 31 -39 34l-83 8c-93 9 -156 51 -156 156c0 119 107 178 214 178c88 0 159 -13 212 -66l-101 -101c-27 27 -72 32 -114 32c-40 0 -53 -19 -53 -31
c0 -16 8 -27 35 -30l83 -8c113 -11 162 -78 162 -164zM466 789l-136 -179h-130l-136 179h122l79 -83l79 83h122z" />
    <glyph glyph-name="Tcommaaccent" unicode="&#x162;" horiz-adv-x="585" 
d="M555 556h-175v-556h-175v556h-175v156h525v-156zM352 -53l-36 -144h-146l67 144h115z" />
    <glyph glyph-name="tcommaaccent" unicode="&#x163;" horiz-adv-x="363" 
d="M323 0h-82c-119 0 -167 85 -167 159v232h-49v126h49v154h164v-154h85v-126h-85v-220c0 -21 11 -33 33 -33h52v-138zM246 -53l-36 -144h-146l67 144h115z" />
    <glyph glyph-name="Tcaron" unicode="&#x164;" horiz-adv-x="585" 
d="M555 556h-175v-556h-175v556h-175v156h525v-156zM493 961l-136 -179h-130l-136 179h122l79 -83l79 83h122z" />
    <glyph glyph-name="tcaron" unicode="&#x165;" horiz-adv-x="363" 
d="M323 0h-82c-119 0 -167 85 -167 159v232h-49v126h49v154h164v-154h85v-126h-85v-220c0 -21 11 -33 33 -33h52v-138zM451 753l-64 -173h-110l34 173h140z" />
    <glyph glyph-name="Tbar" unicode="&#x166;" horiz-adv-x="585" 
d="M555 556h-175v-130h77v-134h-77v-292h-175v292h-78v134h78v130h-175v156h525v-156z" />
    <glyph glyph-name="tbar" unicode="&#x167;" horiz-adv-x="363" 
d="M323 0h-82c-119 0 -167 85 -167 159v73h-49v126h49v33h-49v126h49v154h164v-154h85v-126h-85v-33h85v-126h-85v-61c0 -21 11 -33 33 -33h52v-138z" />
    <glyph glyph-name="Utilde" unicode="&#x168;" horiz-adv-x="660" 
d="M600 250c0 -156 -123 -256 -271 -256s-269 100 -269 256v462h175v-458c0 -66 36 -104 94 -104s96 38 96 104v458h175v-462zM523 851c-43 -43 -76 -63 -123 -63c-30 0 -51 4 -81 22c-19 11 -36 17 -56 17c-18 0 -34 -3 -58 -27l-68 69c43 43 75 63 122 63
c30 0 51 -4 81 -22c19 -11 35 -17 55 -17c18 0 34 3 58 27z" />
    <glyph glyph-name="utilde" unicode="&#x169;" horiz-adv-x="579" 
d="M517 0h-160v44c-33 -33 -82 -50 -125 -50c-51 0 -92 17 -121 46c-46 46 -54 97 -54 154v344h164v-322c0 -62 44 -74 66 -74s66 12 66 74v322h164v-538zM479 679c-43 -43 -76 -63 -123 -63c-30 0 -51 4 -81 22c-19 11 -36 17 -56 17c-18 0 -34 -3 -58 -27l-68 69
c43 43 75 63 122 63c30 0 51 -4 81 -22c19 -11 35 -17 55 -17c18 0 34 3 58 27z" />
    <glyph glyph-name="Umacron" unicode="&#x16a;" horiz-adv-x="660" 
d="M600 250c0 -156 -123 -256 -271 -256s-269 100 -269 256v462h175v-458c0 -66 36 -104 94 -104s96 38 96 104v458h175v-462zM493 791h-326v105h326v-105z" />
    <glyph glyph-name="umacron" unicode="&#x16b;" horiz-adv-x="579" 
d="M517 0h-160v44c-33 -33 -82 -50 -125 -50c-51 0 -92 17 -121 46c-46 46 -54 97 -54 154v344h164v-322c0 -62 44 -74 66 -74s66 12 66 74v322h164v-538zM450 629h-326v105h326v-105z" />
    <glyph glyph-name="Ubreve" unicode="&#x16c;" horiz-adv-x="660" 
d="M600 250c0 -156 -123 -256 -271 -256s-269 100 -269 256v462h175v-458c0 -66 36 -104 94 -104s96 38 96 104v458h175v-462zM493 931c-3 -118 -87 -157 -164 -157s-161 39 -164 157h106c3 -37 33 -47 58 -47s55 10 58 47h106z" />
    <glyph glyph-name="ubreve" unicode="&#x16d;" horiz-adv-x="579" 
d="M517 0h-160v44c-33 -33 -82 -50 -125 -50c-51 0 -92 17 -121 46c-46 46 -54 97 -54 154v344h164v-322c0 -62 44 -74 66 -74s66 12 66 74v322h164v-538zM451 759c-3 -118 -87 -157 -164 -157s-161 39 -164 157h106c3 -37 33 -47 58 -47s55 10 58 47h106z" />
    <glyph glyph-name="Uring" unicode="&#x16e;" horiz-adv-x="660" 
d="M600 250c0 -156 -123 -256 -271 -256s-269 100 -269 256v462h175v-458c0 -66 36 -104 94 -104s96 38 96 104v458h175v-462zM468 903c0 -76 -62 -138 -138 -138s-138 62 -138 138s62 138 138 138s138 -61 138 -138zM382 903c0 28 -24 52 -52 52s-52 -24 -52 -52
s24 -52 52 -52s52 24 52 52z" />
    <glyph glyph-name="uring" unicode="&#x16f;" horiz-adv-x="579" 
d="M517 0h-160v44c-33 -33 -82 -50 -125 -50c-51 0 -92 17 -121 46c-46 46 -54 97 -54 154v344h164v-322c0 -62 44 -74 66 -74s66 12 66 74v322h164v-538zM427 731c0 -76 -62 -138 -138 -138s-138 62 -138 138s62 138 138 138s138 -61 138 -138zM341 731c0 28 -24 52 -52 52
s-52 -24 -52 -52s24 -52 52 -52s52 24 52 52z" />
    <glyph glyph-name="Uhungarumlaut" unicode="&#x170;" horiz-adv-x="660" 
d="M600 250c0 -156 -123 -256 -271 -256s-269 100 -269 256v462h175v-458c0 -66 36 -104 94 -104s96 38 96 104v458h175v-462zM584 962l-101 -180h-117l65 180h153zM359 962l-101 -180h-117l65 180h153z" />
    <glyph glyph-name="uhungarumlaut" unicode="&#x171;" horiz-adv-x="579" 
d="M517 0h-160v44c-33 -33 -82 -50 -125 -50c-51 0 -92 17 -121 46c-46 46 -54 97 -54 154v344h164v-322c0 -62 44 -74 66 -74s66 12 66 74v322h164v-538zM540 790l-101 -180h-117l65 180h153zM315 790l-101 -180h-117l65 180h153z" />
    <glyph glyph-name="Uogonek" unicode="&#x172;" horiz-adv-x="660" 
d="M600 250c0 -156 -123 -256 -271 -256s-269 100 -269 256v462h175v-458c0 -66 36 -104 94 -104s96 38 96 104v458h175v-462zM507 -56l-36 -144h-146l67 144h115z" />
    <glyph glyph-name="uogonek" unicode="&#x173;" horiz-adv-x="579" 
d="M517 0h-160v44c-33 -33 -82 -50 -125 -50c-51 0 -92 17 -121 46c-46 46 -54 97 -54 154v344h164v-322c0 -62 44 -74 66 -74s66 12 66 74v322h164v-538zM472 -56l-36 -144h-146l67 144h115z" />
    <glyph glyph-name="Wcircumflex" unicode="&#x174;" horiz-adv-x="906" 
d="M906 712l-195 -712h-143l-115 351l-115 -351h-142l-196 712h183l93 -376l115 376h124l115 -376l93 376h183zM654 782h-122l-79 83l-79 -83h-122l136 179h130z" />
    <glyph glyph-name="wcircumflex" unicode="&#x175;" horiz-adv-x="780" 
d="M780 538l-162 -538h-131l-97 295l-97 -295h-131l-162 538h173l67 -279l93 279h114l93 -279l67 279h173zM591 610h-122l-79 83l-79 -83h-122l136 179h130z" />
    <glyph glyph-name="Ycircumflex" unicode="&#x176;" horiz-adv-x="605" 
d="M605 712l-215 -422v-290h-175v290l-215 422h191l112 -256l111 256h191zM504 782h-122l-79 83l-79 -83h-122l136 179h130z" />
    <glyph glyph-name="ycircumflex" unicode="&#x177;" horiz-adv-x="514" 
d="M522 538l-223 -602c-11 -31 -25 -54 -42 -71c-32 -34 -73 -45 -121 -45h-62v148h35c29 0 44 7 55 40l15 45l-179 485h172l91 -279l87 279h172zM463 610h-122l-79 83l-79 -83h-122l136 179h130z" />
    <glyph glyph-name="Ydieresis" unicode="&#x178;" horiz-adv-x="605" 
d="M605 712l-215 -422v-290h-175v290l-215 422h191l112 -256l111 256h191zM482 781h-134v145h134v-145zM256 781h-134v145h134v-145z" />
    <glyph glyph-name="Zacute" unicode="&#x179;" horiz-adv-x="543" 
d="M513 0h-483v136l273 420h-261v156h471v-136l-274 -420h274v-156zM422 962l-101 -180h-117l65 180h153z" />
    <glyph glyph-name="zacute" unicode="&#x17a;" horiz-adv-x="489" 
d="M449 0h-419v121l205 269h-193v148h407v-121l-209 -269h209v-148zM393 790l-101 -180h-117l65 180h153z" />
    <glyph glyph-name="Zdotaccent" unicode="&#x17b;" horiz-adv-x="543" 
d="M513 0h-483v136l273 420h-261v156h471v-136l-274 -420h274v-156zM340 785h-138v138h138v-138z" />
    <glyph glyph-name="zdotaccent" unicode="&#x17c;" horiz-adv-x="489" 
d="M449 0h-419v121l205 269h-193v148h407v-121l-209 -269h209v-148zM310 613h-138v138h138v-138z" />
    <glyph glyph-name="Zcaron" unicode="&#x17d;" horiz-adv-x="543" 
d="M513 0h-483v136l273 420h-261v156h471v-136l-274 -420h274v-156zM474 961l-136 -179h-130l-136 179h122l79 -83l79 83h122z" />
    <glyph glyph-name="zcaron" unicode="&#x17e;" horiz-adv-x="489" 
d="M449 0h-419v121l205 269h-193v148h407v-121l-209 -269h209v-148zM442 789l-136 -179h-130l-136 179h122l79 -83l79 83h122z" />
    <glyph glyph-name="longs" unicode="&#x17f;" horiz-adv-x="288" 
d="M226 552v-552h-164v564c0 74 48 159 167 159h87v-138h-57c-22 0 -33 -12 -33 -33z" />
    <glyph glyph-name="uni018F" unicode="&#x18f;" horiz-adv-x="647" 
d="M49 311v99h373c-2 83 -12 103 -25 121c-13 17 -37 31 -69 31c-60 0 -88 -26 -102 -80h-176c17 117 95 236 278 236c86 0 146 -27 197 -78c73 -73 73 -164 73 -284s0 -211 -73 -284c-51 -51 -111 -78 -197 -78c-78 0 -146 17 -207 80c-54 55 -72 122 -72 237zM223 264v-10
c0 -27 7 -56 27 -76c16 -17 41 -28 78 -28c32 0 56 13 69 30c11 14 19 31 23 84h-197z" />
    <glyph glyph-name="florin" unicode="&#x192;" horiz-adv-x="441" 
d="M411 585h-80c-22 0 -35 -12 -39 -33l-26 -148h90v-126h-112l-80 -452h-164l80 452h-49v126h71l28 160c13 74 76 159 195 159h86v-138z" />
    <glyph glyph-name="uni01B5" unicode="&#x1b5;" horiz-adv-x="543" 
d="M513 0h-483v136l102 157h-23v134h110l84 129h-261v156h471v-136l-97 -149h23v-134h-111l-89 -137h274v-156z" />
    <glyph glyph-name="uni01B6" unicode="&#x1b6;" horiz-adv-x="489" 
d="M449 0h-419v121l74 97h-20v102h97l54 70h-193v148h407v-121l-76 -97h21v-102h-100l-54 -70h209v-148z" />
    <glyph glyph-name="uni01C4" unicode="&#x1c4;" horiz-adv-x="1194" 
d="M602 356c0 -123 0 -179 -35 -236c-49 -79 -124 -120 -231 -120h-264v712h264c107 0 182 -41 231 -120c35 -57 35 -113 35 -236zM427 356c0 120 -5 140 -19 160c-16 24 -40 40 -84 40h-77v-400h77c44 0 68 16 84 40c14 20 19 39 19 160zM1164 0h-483v136l273 420h-261v156
h471v-136l-274 -420h274v-156zM1125 961l-136 -179h-130l-136 179h122l79 -83l79 83h122z" />
    <glyph glyph-name="uni01C5" unicode="&#x1c5;" horiz-adv-x="1140" 
d="M602 356c0 -123 0 -179 -35 -236c-49 -79 -124 -120 -231 -120h-264v712h264c107 0 182 -41 231 -120c35 -57 35 -113 35 -236zM427 356c0 120 -5 140 -19 160c-16 24 -40 40 -84 40h-77v-400h77c44 0 68 16 84 40c14 20 19 39 19 160zM1100 0h-419v121l205 269h-193v148
h407v-121l-209 -269h209v-148zM1093 789l-136 -179h-130l-136 179h122l79 -83l79 83h122z" />
    <glyph glyph-name="uni01C6" unicode="&#x1c6;" horiz-adv-x="1058" 
d="M507 0h-159v44c-33 -33 -68 -50 -124 -50c-52 0 -99 17 -130 49c-50 52 -51 133 -51 226s1 174 51 226c31 32 77 49 129 49c53 0 90 -15 120 -45v213h164v-712zM343 269c0 78 -7 127 -68 127s-68 -49 -68 -127s7 -127 68 -127s68 49 68 127zM1018 0h-419v121l205 269
h-193v148h407v-121l-209 -269h209v-148zM1011 789l-136 -179h-130l-136 179h122l79 -83l79 83h122z" />
    <glyph glyph-name="uni01C7" unicode="&#x1c7;" horiz-adv-x="1092" 
d="M546 0h-474v712h175v-556h299v-156zM1030 244c0 -169 -134 -250 -268 -250c-83 0 -136 20 -194 78l115 114c22 -22 40 -36 79 -36c54 0 93 30 93 98v464h175v-468z" />
    <glyph glyph-name="uni01C8" unicode="&#x1c8;" horiz-adv-x="864" 
d="M546 0h-474v712h175v-556h299v-156zM802 -21c0 -74 -48 -159 -167 -159h-87v138h57c22 0 33 12 33 33v526h164v-538zM802 593h-164v125h164v-125z" />
    <glyph glyph-name="uni01C9" unicode="&#x1c9;" horiz-adv-x="629" 
d="M311 0h-87c-119 0 -167 85 -167 159v553h164v-541c0 -21 11 -33 33 -33h57v-138zM567 -21c0 -74 -48 -159 -167 -159h-87v138h57c22 0 33 12 33 33v526h164v-538zM567 593h-164v125h164v-125z" />
    <glyph glyph-name="uni01CA" unicode="&#x1ca;" horiz-adv-x="1216" 
d="M628 0h-153l-228 358v-358h-175v712h153l228 -358v358h175v-712zM1154 244c0 -169 -134 -250 -268 -250c-83 0 -136 20 -194 78l115 114c22 -22 40 -36 79 -36c54 0 93 30 93 98v464h175v-468z" />
    <glyph glyph-name="uni01CB" unicode="&#x1cb;" horiz-adv-x="988" 
d="M628 0h-153l-228 358v-358h-175v712h153l228 -358v358h175v-712zM926 -21c0 -74 -48 -159 -167 -159h-87v138h57c22 0 33 12 33 33v526h164v-538zM926 593h-164v125h164v-125z" />
    <glyph glyph-name="uni01CC" unicode="&#x1cc;" horiz-adv-x="867" 
d="M522 0h-164v322c0 62 -44 74 -66 74s-66 -12 -66 -74v-322h-164v538h160v-44c33 33 82 50 125 50c51 0 92 -17 121 -46c46 -46 54 -97 54 -154v-344zM805 -21c0 -74 -48 -159 -167 -159h-87v138h57c22 0 33 12 33 33v526h164v-538zM805 593h-164v125h164v-125z" />
    <glyph glyph-name="uni01F1" unicode="&#x1f1;" horiz-adv-x="1194" 
d="M602 356c0 -123 0 -179 -35 -236c-49 -79 -124 -120 -231 -120h-264v712h264c107 0 182 -41 231 -120c35 -57 35 -113 35 -236zM427 356c0 120 -5 140 -19 160c-16 24 -40 40 -84 40h-77v-400h77c44 0 68 16 84 40c14 20 19 39 19 160zM1164 0h-483v136l273 420h-261v156
h471v-136l-274 -420h274v-156z" />
    <glyph glyph-name="uni01F2" unicode="&#x1f2;" horiz-adv-x="1140" 
d="M602 356c0 -123 0 -179 -35 -236c-49 -79 -124 -120 -231 -120h-264v712h264c107 0 182 -41 231 -120c35 -57 35 -113 35 -236zM427 356c0 120 -5 140 -19 160c-16 24 -40 40 -84 40h-77v-400h77c44 0 68 16 84 40c14 20 19 39 19 160zM1100 0h-419v121l205 269h-193v148
h407v-121l-209 -269h209v-148z" />
    <glyph glyph-name="uni01F3" unicode="&#x1f3;" horiz-adv-x="1058" 
d="M507 0h-159v44c-33 -33 -68 -50 -124 -50c-52 0 -99 17 -130 49c-50 52 -51 133 -51 226s1 174 51 226c31 32 77 49 129 49c53 0 90 -15 120 -45v213h164v-712zM343 269c0 78 -7 127 -68 127s-68 -49 -68 -127s7 -127 68 -127s68 49 68 127zM1018 0h-419v121l205 269
h-193v148h407v-121l-209 -269h209v-148z" />
    <glyph glyph-name="Aringacute" unicode="&#x1fa;" horiz-adv-x="653" 
d="M653 0h-183l-33 106h-219l-35 -106h-183l259 712h135zM391 252l-60 190l-64 -190h124zM464 893c0 -76 -62 -138 -138 -138s-138 62 -138 138s62 138 138 138s138 -61 138 -138zM378 893c0 28 -24 52 -52 52s-52 -24 -52 -52s24 -52 52 -52s52 24 52 52zM477 1221
l-101 -180h-117l65 180h153z" />
    <glyph glyph-name="aringacute" unicode="&#x1fb;" horiz-adv-x="536" 
d="M483 0h-160v44c-33 -33 -63 -49 -120 -49c-54 0 -99 18 -129 48c-31 31 -47 76 -47 126c0 81 55 156 186 156h106v14c0 49 -24 67 -81 67c-37 0 -59 -12 -85 -38l-102 102c55 55 104 74 195 74c154 0 237 -64 237 -195v-349zM319 202v14h-78c-38 0 -57 -17 -57 -44
c0 -25 19 -44 59 -44c27 0 42 4 59 19c13 12 17 27 17 55zM404 731c0 -76 -62 -138 -138 -138s-138 62 -138 138s62 138 138 138s138 -61 138 -138zM318 731c0 28 -24 52 -52 52s-52 -24 -52 -52s24 -52 52 -52s52 24 52 52zM418 1059l-101 -180h-117l65 180h153z" />
    <glyph glyph-name="AEacute" unicode="&#x1fc;" horiz-adv-x="1013" 
d="M961 0h-484v149h-212l-77 -149h-188l370 712h591v-156h-309v-119h264v-156h-264v-125h309v-156zM477 295v261l-136 -261h136zM715 962l-101 -180h-117l65 180h153z" />
    <glyph glyph-name="aeacute" unicode="&#x1fd;" horiz-adv-x="840" 
d="M802 216h-322c0 -44 34 -84 95 -84c57 0 82 16 111 45l98 -98c-55 -55 -109 -85 -209 -85c-66 0 -137 14 -188 65c-65 -60 -118 -65 -184 -65c-54 0 -98 18 -129 49s-47 76 -47 126c0 81 55 156 186 156h106v14c0 49 -24 67 -81 67c-37 0 -59 -12 -85 -38l-102 102
c55 55 104 74 195 74c74 0 131 -15 170 -45c39 30 88 45 144 45c156 0 242 -112 242 -260v-68zM640 325c0 13 -2 27 -9 42c-10 22 -32 42 -71 42s-61 -20 -71 -42c-7 -15 -9 -29 -9 -42h160zM319 202v14h-78c-38 0 -57 -17 -57 -44c0 -25 19 -44 59 -44c27 0 42 4 59 19
c13 12 17 27 17 55zM536 790l-101 -180h-117l65 180h153z" />
    <glyph glyph-name="Oslashacute" unicode="&#x1fe;" horiz-adv-x="640" 
d="M591 356c0 -120 0 -211 -73 -284c-51 -51 -111 -78 -198 -78c-40 0 -75 6 -105 18l-27 -56h-118l55 113c-76 76 -76 167 -76 287s0 211 73 284c51 51 111 78 198 78c40 0 75 -6 105 -18l27 56h118l-54 -114c75 -75 75 -166 75 -286zM416 356c0 40 -1 70 -3 93l-137 -288
c12 -7 27 -11 44 -11c32 0 57 15 70 32c16 21 26 44 26 174zM364 552c-12 6 -27 10 -44 10c-32 0 -57 -14 -70 -31c-16 -21 -26 -45 -26 -175c0 -40 1 -70 3 -93zM471 962l-101 -180h-117l65 180h153z" />
    <glyph glyph-name="oslashacute" unicode="&#x1ff;" horiz-adv-x="550" 
d="M507 269c0 -106 -14 -157 -59 -206c-32 -34 -86 -69 -173 -69c-42 0 -76 8 -104 20l-34 -58h-93l61 104c-59 62 -62 127 -62 209c0 105 14 157 59 206c32 34 86 69 173 69c42 0 76 -8 104 -20l34 58h93l-61 -104c58 -61 62 -128 62 -209zM343 269c0 19 0 36 -2 50
l-100 -170c9 -5 20 -7 34 -7c20 0 34 5 44 15c21 21 24 59 24 112zM309 389c-9 5 -20 7 -34 7c-20 0 -34 -5 -44 -15c-21 -21 -24 -59 -24 -112c0 -19 0 -36 2 -50zM427 790l-101 -180h-117l65 180h153z" />
    <glyph glyph-name="Scommaaccent" unicode="&#x218;" horiz-adv-x="593" 
d="M550 218c0 -145 -125 -224 -275 -224c-109 0 -198 20 -270 94l112 112c37 -37 102 -50 159 -50c69 0 102 23 102 64c0 17 -4 31 -14 42c-9 9 -24 16 -47 19l-86 12c-63 9 -111 30 -143 63c-33 34 -49 82 -49 143c0 130 98 225 260 225c102 0 179 -24 240 -85l-110 -110
c-37 37 -78 42 -135 42c-61 0 -86 -35 -86 -66c0 -9 3 -22 14 -33c9 -9 24 -18 49 -21l86 -12c64 -9 110 -29 140 -59c38 -37 53 -90 53 -156zM329 -53l-36 -144h-146l67 144h115z" />
    <glyph glyph-name="scommaaccent" unicode="&#x219;" horiz-adv-x="504" 
d="M477 176c0 -127 -108 -182 -233 -182c-81 0 -160 4 -234 78l106 106c45 -45 103 -45 131 -45c24 0 70 7 70 35c0 15 -7 31 -39 34l-83 8c-93 9 -156 51 -156 156c0 119 107 178 214 178c88 0 159 -13 212 -66l-101 -101c-27 27 -72 32 -114 32c-40 0 -53 -19 -53 -31
c0 -16 8 -27 35 -30l83 -8c113 -11 162 -78 162 -164zM297 -53l-36 -144h-146l67 144h115z" />
    <glyph glyph-name="uni021A" unicode="&#x21a;" horiz-adv-x="585" 
d="M555 556h-175v-556h-175v556h-175v156h525v-156zM352 -53l-36 -144h-146l67 144h115z" />
    <glyph glyph-name="uni021B" unicode="&#x21b;" horiz-adv-x="363" 
d="M323 0h-82c-119 0 -167 85 -167 159v232h-49v126h49v154h164v-154h85v-126h-85v-220c0 -21 11 -33 33 -33h52v-138zM246 -53l-36 -144h-146l67 144h115z" />
    <glyph glyph-name="uni0237" unicode="&#x237;" horiz-adv-x="288" 
d="M226 -21c0 -74 -48 -159 -167 -159h-87v138h57c22 0 33 12 33 33v526h164v-538z" />
    <glyph glyph-name="uni0259" unicode="&#x259;" horiz-adv-x="559" 
d="M38 322h322c0 44 -34 84 -95 84c-57 0 -82 -16 -111 -45l-98 98c55 55 109 85 209 85c119 0 256 -43 256 -275c0 -176 -100 -275 -241 -275c-156 0 -242 112 -242 260v68zM200 213c0 -13 2 -27 9 -42c10 -22 32 -42 71 -42s61 20 71 42c7 15 9 29 9 42h-160z" />
    <glyph glyph-name="uni02BB" unicode="&#x2bb;" horiz-adv-x="278" 
d="M221 566h-164v146l164 120v-266z" />
    <glyph glyph-name="afii57929" unicode="&#x2bc;" horiz-adv-x="278" 
d="M221 565l-164 -118v265h164v-147z" />
    <glyph glyph-name="circumflex" unicode="&#x2c6;" horiz-adv-x="500" 
d="M449 610h-120l-79 83l-79 -83h-120l136 179h126z" />
    <glyph glyph-name="caron" unicode="&#x2c7;" horiz-adv-x="500" 
d="M449 789l-136 -179h-126l-136 179h120l79 -83l79 83h120z" />
    <glyph glyph-name="breve" unicode="&#x2d8;" horiz-adv-x="500" 
d="M414 759c-3 -118 -87 -157 -164 -157s-161 39 -164 157h106c3 -37 33 -47 58 -47s55 10 58 47h106z" />
    <glyph glyph-name="dotaccent" unicode="&#x2d9;" horiz-adv-x="500" 
d="M319 613h-138v138h138v-138z" />
    <glyph glyph-name="ring" unicode="&#x2da;" horiz-adv-x="500" 
d="M388 731c0 -76 -62 -138 -138 -138s-138 62 -138 138s62 138 138 138s138 -61 138 -138zM302 731c0 28 -24 52 -52 52s-52 -24 -52 -52s24 -52 52 -52s52 24 52 52z" />
    <glyph glyph-name="ogonek" unicode="&#x2db;" horiz-adv-x="500" 
d="M430 -56l-36 -144h-146l67 144h115z" />
    <glyph glyph-name="tilde" unicode="&#x2dc;" horiz-adv-x="500" 
d="M468 679c-43 -43 -76 -63 -123 -63c-30 0 -51 4 -81 22c-19 11 -36 17 -56 17c-18 0 -34 -3 -58 -27l-68 69c43 43 75 63 122 63c30 0 51 -4 81 -22c19 -11 35 -17 55 -17c18 0 34 3 58 27z" />
    <glyph glyph-name="hungarumlaut" unicode="&#x2dd;" horiz-adv-x="500" 
d="M246 790l-117 -180h-100l49 180h168zM471 790l-118 -180h-99l49 180h168z" />
    <glyph glyph-name="uni037E" unicode="&#x37e;" horiz-adv-x="317" 
d="M257 -50l-174 -128v352h174v-224zM260 253h-180v180h180v-180z" />
    <glyph glyph-name="tonos" unicode="&#x384;" horiz-adv-x="500" 
d="M321 636l-131 -54v172h131v-118z" />
    <glyph glyph-name="dieresistonos" unicode="&#x385;" horiz-adv-x="494" 
d="M494 609h-134v145h134v-145zM319 672l-131 -54v172h131v-118zM134 609h-134v145h134v-145z" />
    <glyph glyph-name="Alphatonos" unicode="&#x386;" horiz-adv-x="653" 
d="M653 0h-183l-33 106h-219l-35 -106h-183l259 712h135zM391 252l-60 190l-64 -190h124zM111 594l-131 -54v172h131v-118z" />
    <glyph glyph-name="anoteleia" unicode="&#x387;" horiz-adv-x="280" 
d="M231 213h-182v164h182v-164z" />
    <glyph glyph-name="Epsilontonos" unicode="&#x388;" horiz-adv-x="608" 
d="M556 0h-484v712h484v-156h-309v-119h264v-156h-264v-125h309v-156zM10 594l-131 -54v172h131v-118z" />
    <glyph glyph-name="Etatonos" unicode="&#x389;" horiz-adv-x="680" 
d="M608 0h-175v282h-186v-282h-175v712h175v-274h186v274h175v-712zM11 594l-131 -54v172h131v-118z" />
    <glyph glyph-name="Iotatonos" unicode="&#x38a;" horiz-adv-x="319" 
d="M247 0h-175v712h175v-712zM10 594l-131 -54v172h131v-118z" />
    <glyph glyph-name="Omicrontonos" unicode="&#x38c;" horiz-adv-x="640" 
d="M591 356c0 -120 0 -211 -73 -284c-51 -51 -111 -78 -198 -78s-147 27 -198 78c-73 73 -73 164 -73 284s0 211 73 284c51 51 111 78 198 78s147 -27 198 -78c73 -73 73 -164 73 -284zM416 356c0 130 -10 154 -26 175c-13 17 -38 31 -70 31s-57 -14 -70 -31
c-16 -21 -26 -45 -26 -175s10 -153 26 -174c13 -17 38 -32 70 -32s57 15 70 32c16 21 26 44 26 174zM31 594l-131 -54v172h131v-118z" />
    <glyph glyph-name="Upsilontonos" unicode="&#x38e;" horiz-adv-x="605" 
d="M605 712l-215 -422v-290h-175v290l-215 422h191l112 -256l111 256h191zM-19 594l-131 -54v172h131v-118z" />
    <glyph glyph-name="Omegatonos" unicode="&#x38f;" horiz-adv-x="640" 
d="M31 594l-131 -54v172h131v-118zM591 356c0 -56 -5 -107 -20 -152c-5 -16 -13 -33 -25 -48h45v-156h-233v136c14 7 25 16 32 25c16 21 26 55 26 185s-10 162 -26 183c-13 17 -38 33 -70 33s-57 -16 -70 -33c-16 -21 -26 -53 -26 -183s10 -164 26 -185c7 -9 18 -18 32 -25
v-136h-233v156h45c-12 15 -20 32 -25 48c-15 45 -20 96 -20 152c0 120 0 211 73 284c51 51 111 78 198 78s147 -27 198 -78c73 -73 73 -164 73 -284z" />
    <glyph glyph-name="iotadieresistonos" unicode="&#x390;" horiz-adv-x="341" 
d="M311 0h-87c-119 0 -167 85 -167 159v379h164v-367c0 -21 11 -33 33 -33h57v-138zM394 609h-134v145h134v-145zM219 672l-131 -54v172h131v-118zM34 609h-134v145h134v-145z" />
    <glyph glyph-name="Alpha" unicode="&#x391;" horiz-adv-x="653" 
d="M653 0h-183l-33 106h-219l-35 -106h-183l259 712h135zM391 252l-60 190l-64 -190h124z" />
    <glyph glyph-name="Beta" unicode="&#x392;" horiz-adv-x="653" 
d="M604 210c0 -136 -95 -210 -222 -210h-310v712h295c148 0 227 -83 227 -206c0 -81 -56 -126 -78 -141c29 -18 88 -55 88 -155zM419 497c0 28 -15 58 -63 58h-109v-116h109c48 0 63 30 63 58zM429 220c0 30 -16 62 -64 62h-118v-125h118c48 0 64 33 64 63z" />
    <glyph glyph-name="Gamma" unicode="&#x393;" horiz-adv-x="571" 
d="M541 556h-294v-556h-175v712h469v-156z" />
    <glyph glyph-name="uni0394" unicode="&#x394;" horiz-adv-x="653" 
d="M653 0h-653l259 712h135zM424 146l-93 296l-99 -296h192z" />
    <glyph glyph-name="Epsilon" unicode="&#x395;" horiz-adv-x="608" 
d="M556 0h-484v712h484v-156h-309v-119h264v-156h-264v-125h309v-156z" />
    <glyph glyph-name="Zeta" unicode="&#x396;" horiz-adv-x="543" 
d="M513 0h-483v136l273 420h-261v156h471v-136l-274 -420h274v-156z" />
    <glyph glyph-name="Eta" unicode="&#x397;" horiz-adv-x="680" 
d="M608 0h-175v282h-186v-282h-175v712h175v-274h186v274h175v-712z" />
    <glyph glyph-name="Theta" unicode="&#x398;" horiz-adv-x="640" 
d="M414 438c-4 60 -12 77 -24 93c-13 17 -38 31 -70 31s-57 -14 -70 -31c-12 -16 -20 -33 -24 -93h188zM415 292h-190c3 -75 12 -93 25 -110s38 -32 70 -32s57 15 70 32s22 35 25 110zM591 356c0 -120 0 -211 -73 -284c-51 -51 -111 -78 -198 -78s-147 27 -198 78
c-73 73 -73 164 -73 284s0 211 73 284c51 51 111 78 198 78s147 -27 198 -78c73 -73 73 -164 73 -284z" />
    <glyph glyph-name="Iota" unicode="&#x399;" horiz-adv-x="319" 
d="M247 0h-175v712h175v-712z" />
    <glyph glyph-name="Kappa" unicode="&#x39a;" horiz-adv-x="673" 
d="M673 0h-204l-164 292l-60 -69v-223h-173v712h173v-252l206 252h214l-243 -288z" />
    <glyph glyph-name="Lambda" unicode="&#x39b;" horiz-adv-x="633" 
d="M633 0h-183l-129 436l-138 -436h-183l249 712h135z" />
    <glyph glyph-name="Mu" unicode="&#x39c;" horiz-adv-x="808" 
d="M736 0h-175v341l-101 -176h-112l-101 176v-341h-175v712h172l160 -314l160 314h172v-712z" />
    <glyph glyph-name="Nu" unicode="&#x39d;" horiz-adv-x="700" 
d="M628 0h-153l-228 358v-358h-175v712h153l228 -358v358h175v-712z" />
    <glyph glyph-name="Xi" unicode="&#x39e;" horiz-adv-x="609" 
d="M557 0h-505v156h165v125h-120v156h120v119h-165v156h505v-156h-165v-119h120v-156h-120v-125h165v-156z" />
    <glyph glyph-name="Omicron" unicode="&#x39f;" horiz-adv-x="640" 
d="M591 356c0 -120 0 -211 -73 -284c-51 -51 -111 -78 -198 -78s-147 27 -198 78c-73 73 -73 164 -73 284s0 211 73 284c51 51 111 78 198 78s147 -27 198 -78c73 -73 73 -164 73 -284zM416 356c0 130 -10 154 -26 175c-13 17 -38 31 -70 31s-57 -14 -70 -31
c-16 -21 -26 -45 -26 -175s10 -153 26 -174c13 -17 38 -32 70 -32s57 15 70 32c16 21 26 44 26 174z" />
    <glyph glyph-name="Pi" unicode="&#x3a0;" horiz-adv-x="680" 
d="M608 0h-175v556h-186v-556h-175v712h536v-712z" />
    <glyph glyph-name="Rho" unicode="&#x3a1;" horiz-adv-x="627" 
d="M597 483c0 -117 -85 -229 -243 -229h-107v-254h-175v712h282c158 0 243 -112 243 -229zM422 483c0 37 -28 72 -76 72h-99v-144h99c48 0 76 35 76 72z" />
    <glyph glyph-name="Sigma" unicode="&#x3a3;" horiz-adv-x="543" 
d="M517 556h-261l118 -190l-135 -210h274v-156h-483v136l153 230l-137 210v136h471v-156z" />
    <glyph glyph-name="Tau" unicode="&#x3a4;" horiz-adv-x="585" 
d="M555 556h-175v-556h-175v556h-175v156h525v-156z" />
    <glyph glyph-name="Upsilon" unicode="&#x3a5;" horiz-adv-x="605" 
d="M605 712l-215 -422v-290h-175v290l-215 422h191l112 -256l111 256h191z" />
    <glyph glyph-name="Phi" unicode="&#x3a6;" horiz-adv-x="801" 
d="M761 356c0 -78 -15 -164 -73 -222s-119 -80 -200 -80v-54h-175v54c-81 0 -142 22 -200 80s-73 144 -73 222s15 164 73 222s119 80 200 80v54h175v-54c81 0 142 -22 200 -80s73 -144 73 -222zM586 356c0 45 -5 83 -23 110c-15 23 -40 36 -75 36v-292c35 0 60 13 75 36
c18 27 23 65 23 110zM313 210v292c-35 0 -60 -13 -75 -36c-18 -27 -23 -65 -23 -110s5 -83 23 -110c15 -23 40 -36 75 -36z" />
    <glyph glyph-name="Chi" unicode="&#x3a7;" horiz-adv-x="634" 
d="M634 0h-200l-117 219l-117 -219h-200l222 365l-208 347h199l104 -201l104 201h199l-208 -347z" />
    <glyph glyph-name="Psi" unicode="&#x3a8;" horiz-adv-x="791" 
d="M746 366c0 -61 -26 -116 -72 -162c-50 -50 -108 -78 -191 -80v-124h-175v124c-83 2 -141 30 -191 80c-46 46 -72 101 -72 162v346h175v-346c0 -44 46 -82 88 -86v432h175v-432c42 4 88 42 88 86v346h175v-346z" />
    <glyph glyph-name="uni03A9" unicode="&#x3a9;" horiz-adv-x="640" 
d="M591 356c0 -56 -5 -107 -20 -152c-5 -16 -13 -33 -25 -48h45v-156h-233v136c14 7 25 16 32 25c16 21 26 55 26 185s-10 162 -26 183c-13 17 -38 33 -70 33s-57 -16 -70 -33c-16 -21 -26 -53 -26 -183s10 -164 26 -185c7 -9 18 -18 32 -25v-136h-233v156h45
c-12 15 -20 32 -25 48c-15 45 -20 96 -20 152c0 120 0 211 73 284c51 51 111 78 198 78s147 -27 198 -78c73 -73 73 -164 73 -284z" />
    <glyph glyph-name="Iotadieresis" unicode="&#x3aa;" horiz-adv-x="319" 
d="M247 0h-175v712h175v-712zM341 781h-134v145h134v-145zM115 781h-134v145h134v-145z" />
    <glyph glyph-name="Upsilondieresis" unicode="&#x3ab;" horiz-adv-x="605" 
d="M605 712l-215 -422v-290h-175v290l-215 422h191l112 -256l111 256h191zM482 781h-134v145h134v-145zM256 781h-134v145h134v-145z" />
    <glyph glyph-name="alphatonos" unicode="&#x3ac;" horiz-adv-x="569" 
d="M507 0h-159v44c-33 -33 -68 -50 -124 -50c-52 0 -99 17 -130 49c-50 52 -51 133 -51 226s1 174 51 226c31 32 78 49 130 49c56 0 91 -17 124 -50v44h159v-538zM343 269c0 78 -7 127 -68 127s-68 -49 -68 -127s7 -127 68 -127s68 49 68 127zM351 636l-131 -54v172h131
v-118z" />
    <glyph glyph-name="epsilontonos" unicode="&#x3ad;" horiz-adv-x="526" 
d="M516 90c-80 -82 -129 -96 -239 -96c-124 0 -242 45 -242 166c0 75 49 104 77 121c-17 12 -55 45 -55 107c0 90 97 155 229 155c70 0 131 -17 206 -77l-87 -109c-29 25 -63 53 -114 53c-46 0 -73 -14 -73 -46c0 -18 18 -29 43 -29h103v-123h-112c-32 0 -51 -10 -51 -33
c0 -34 45 -49 89 -49c54 0 86 15 126 56zM351 636l-131 -54v172h131v-118z" />
    <glyph glyph-name="etatonos" unicode="&#x3ae;" horiz-adv-x="579" 
d="M522 0h-164v322c0 62 -44 74 -66 74s-66 -12 -66 -74v-322h-164v538h160v-44c33 33 82 50 125 50c51 0 92 -17 121 -46c46 -46 54 -97 54 -154v-344zM351 636l-131 -54v172h131v-118z" />
    <glyph glyph-name="iotatonos" unicode="&#x3af;" horiz-adv-x="341" 
d="M311 0h-87c-119 0 -167 85 -167 159v379h164v-367c0 -21 11 -33 33 -33h57v-138zM211 636l-131 -54v172h131v-118z" />
    <glyph glyph-name="upsilondieresistonos" unicode="&#x3b0;" horiz-adv-x="560" 
d="M510 269c0 -106 -12 -157 -57 -206c-32 -34 -86 -69 -173 -69s-141 35 -173 69c-45 49 -57 100 -57 206v269h164v-322c0 -62 44 -74 66 -74s66 12 66 74v322h164v-269zM521 609h-134v145h134v-145zM346 672l-131 -54v172h131v-118zM161 609h-134v145h134v-145z" />
    <glyph glyph-name="alpha" unicode="&#x3b1;" horiz-adv-x="569" 
d="M507 0h-159v44c-33 -33 -68 -50 -124 -50c-52 0 -99 17 -130 49c-50 52 -51 133 -51 226s1 174 51 226c31 32 78 49 130 49c56 0 91 -17 124 -50v44h159v-538zM343 269c0 78 -7 127 -68 127s-68 -49 -68 -127s7 -127 68 -127s68 49 68 127z" />
    <glyph glyph-name="beta" unicode="&#x3b2;" horiz-adv-x="584" 
d="M535 230c0 -57 -5 -134 -47 -180c-28 -30 -75 -56 -145 -56c-63 0 -109 35 -124 50v-44h-157v514c0 147 107 204 240 204c127 0 225 -66 225 -181c0 -35 -5 -81 -24 -106c-18 -24 -35 -37 -51 -44c18 -8 39 -23 51 -40c26 -37 32 -75 32 -117zM371 242c0 27 -1 56 -26 71
c-13 8 -21 12 -49 12h-44v124h62c41 0 59 35 59 69c0 19 -11 35 -19 42c-11 10 -25 19 -49 19c-59 0 -78 -28 -78 -74v-293c0 -53 46 -71 63 -71c26 0 43 2 60 19c19 19 21 56 21 82z" />
    <glyph glyph-name="gamma" unicode="&#x3b3;" horiz-adv-x="521" 
d="M521 538l-180 -519v-193h-162v193l-179 519h172l89 -312l88 312h172z" />
    <glyph glyph-name="delta" unicode="&#x3b4;" horiz-adv-x="534" 
d="M491 259c0 -102 -13 -152 -57 -199c-31 -33 -83 -66 -167 -66s-136 33 -167 66c-44 47 -57 97 -57 199c0 101 12 154 56 201c25 27 65 49 102 49c19 0 24 0 35 -5l-127 103v105h351v-113h-154l89 -75c88 -74 96 -161 96 -265zM327 259c0 49 -2 84 -21 103
c-9 9 -21 14 -39 14s-30 -5 -39 -14c-19 -19 -21 -54 -21 -103s2 -84 21 -103c9 -9 21 -14 39 -14s30 5 39 14c19 19 21 54 21 103z" />
    <glyph glyph-name="epsilon" unicode="&#x3b5;" horiz-adv-x="526" 
d="M516 90c-80 -82 -129 -96 -239 -96c-124 0 -242 45 -242 166c0 75 49 104 77 121c-17 12 -55 45 -55 107c0 90 97 155 229 155c70 0 131 -17 206 -77l-87 -109c-29 25 -63 53 -114 53c-46 0 -73 -14 -73 -46c0 -18 18 -29 43 -29h103v-123h-112c-32 0 -51 -10 -51 -33
c0 -34 45 -49 89 -49c54 0 86 15 126 56z" />
    <glyph glyph-name="zeta" unicode="&#x3b6;" horiz-adv-x="512" 
d="M488 -2c0 -21 -10 -155 -182 -155h-25v120h14c35 0 42 6 42 23c0 14 -15 16 -45 16h-18c-144 0 -234 45 -234 169c0 92 75 180 156 219h-124v148h407v-148h-23c-90 -32 -246 -117 -246 -199c0 -47 39 -52 66 -52h38c92 0 174 -34 174 -141z" />
    <glyph glyph-name="eta" unicode="&#x3b7;" horiz-adv-x="579" 
d="M522 0h-164v322c0 62 -44 74 -66 74s-66 -12 -66 -74v-322h-164v538h160v-44c33 33 82 50 125 50c51 0 92 -17 121 -46c46 -46 54 -97 54 -154v-344z" />
    <glyph glyph-name="theta" unicode="&#x3b8;" horiz-adv-x="576" 
d="M526 356c0 -107 0 -215 -62 -287c-45 -53 -101 -75 -176 -75s-131 22 -176 75c-62 72 -62 180 -62 287s0 215 62 287c45 52 101 75 176 75s131 -23 176 -75c62 -72 62 -180 62 -287zM360 293h-144c0 -77 6 -106 16 -121c11 -17 29 -30 56 -30s45 13 56 30
c10 15 16 44 16 121zM360 430c0 65 -6 95 -16 110c-11 17 -29 30 -56 30s-45 -13 -56 -30c-10 -15 -16 -45 -16 -110h144z" />
    <glyph glyph-name="iota" unicode="&#x3b9;" horiz-adv-x="341" 
d="M311 0h-87c-119 0 -167 85 -167 159v379h164v-367c0 -21 11 -33 33 -33h57v-138z" />
    <glyph glyph-name="kappa" unicode="&#x3ba;" horiz-adv-x="573" 
d="M573 0h-203l-112 197l-32 -35v-162h-164v538h164v-188l145 188h197l-198 -223z" />
    <glyph glyph-name="lambda" unicode="&#x3bb;" horiz-adv-x="531" 
d="M539 0h-77c-119 0 -140 88 -160 159l-34 120l-96 -279h-172l187 485l-14 45c-10 33 -25 40 -54 40h-35v148h64c48 0 88 -11 120 -45c16 -17 30 -40 41 -71l150 -428c7 -20 13 -36 35 -36h45v-138z" />
    <glyph glyph-name="uni03BC" unicode="&#x3bc;" horiz-adv-x="584" 
d="M522 0h-160v44c-33 -33 -82 -50 -125 -50h-11v-168h-164v712h164v-322c0 -62 44 -74 66 -74s66 12 66 74v322h164v-538z" />
    <glyph glyph-name="nu" unicode="&#x3bd;" horiz-adv-x="521" 
d="M521 538l-198 -538h-125l-198 538h172l89 -279l88 279h172z" />
    <glyph glyph-name="xi" unicode="&#x3be;" horiz-adv-x="501" 
d="M498 641l-83 -108c-28 34 -74 56 -125 56c-46 0 -76 -22 -76 -71c0 -44 32 -66 74 -66h121v-135h-101c-39 0 -106 -5 -106 -88c0 -79 58 -90 92 -90h18c92 0 174 -30 174 -137c0 -21 -10 -159 -182 -159h-25v120h14c35 0 42 11 42 28c0 14 -15 15 -45 15h-18
c-151 0 -234 62 -234 198c0 111 64 160 119 184c-58 18 -98 77 -98 137c0 132 101 198 223 198c90 0 173 -33 216 -82z" />
    <glyph glyph-name="omicron" unicode="&#x3bf;" horiz-adv-x="550" 
d="M507 269c0 -106 -14 -157 -59 -206c-32 -34 -86 -69 -173 -69s-141 35 -173 69c-45 49 -59 100 -59 206c0 105 14 157 59 206c32 34 86 69 173 69s141 -35 173 -69c45 -49 59 -101 59 -206zM343 269c0 53 -3 91 -24 112c-10 10 -24 15 -44 15s-34 -5 -44 -15
c-21 -21 -24 -59 -24 -112s3 -91 24 -112c10 -10 24 -15 44 -15s34 5 44 15c21 21 24 59 24 112z" />
    <glyph glyph-name="pi" unicode="&#x3c0;" horiz-adv-x="587" 
d="M530 0h-164v382h-140v-382h-164v538h468v-538z" />
    <glyph glyph-name="rho" unicode="&#x3c1;" horiz-adv-x="550" 
d="M507 269c0 -79 -4 -153 -62 -211c-30 -30 -77 -64 -147 -64c-47 0 -83 27 -91 36v-204h-164v441c0 120 25 164 44 190c22 30 80 87 183 87c81 0 139 -28 173 -63c63 -65 64 -133 64 -212zM343 269c0 78 -7 127 -68 127s-68 -49 -68 -127s7 -127 68 -127s68 49 68 127z
" />
    <glyph glyph-name="sigma1" unicode="&#x3c2;" horiz-adv-x="475" 
d="M457 475l-111 -111c-21 21 -39 32 -66 32c-22 0 -37 -7 -51 -21c-19 -20 -27 -55 -27 -106c0 -81 37 -102 98 -115c82 -17 135 -59 135 -154c0 -22 -3 -158 -207 -158v124c34 0 56 1 56 29c0 19 -37 27 -67 31c-115 17 -179 94 -179 243c0 235 149 275 242 275
c75 0 133 -25 177 -69z" />
    <glyph glyph-name="sigma" unicode="&#x3c3;" horiz-adv-x="575" 
d="M542 399h-79c24 -20 44 -82 44 -130c0 -106 -14 -157 -59 -206c-32 -34 -86 -69 -173 -69s-141 35 -173 69c-45 49 -59 100 -59 206c0 105 14 157 59 206c32 34 84 63 171 63h269v-139zM343 269c0 53 -3 99 -24 120c-10 10 -24 13 -44 13s-34 -6 -44 -16
c-21 -21 -24 -64 -24 -117s3 -91 24 -112c10 -10 24 -15 44 -15s34 5 44 15c21 21 24 59 24 112z" />
    <glyph glyph-name="tau" unicode="&#x3c4;" horiz-adv-x="420" 
d="M400 390h-108v-390h-164v390h-108v148h380v-148z" />
    <glyph glyph-name="upsilon" unicode="&#x3c5;" horiz-adv-x="560" 
d="M510 269c0 -106 -12 -157 -57 -206c-32 -34 -86 -69 -173 -69s-141 35 -173 69c-45 49 -57 100 -57 206v269h164v-322c0 -62 44 -74 66 -74s66 12 66 74v322h164v-269z" />
    <glyph glyph-name="phi" unicode="&#x3c6;" horiz-adv-x="723" 
d="M680 268c0 -154 -68 -268 -233 -275v-167h-164v167c-167 9 -240 126 -240 277c0 108 43 206 168 274l61 -107c-51 -41 -65 -104 -65 -172c0 -55 11 -123 76 -130v403h128c84 0 150 -14 194 -52c51 -44 75 -118 75 -218zM516 269c0 70 -4 135 -69 135v-269
c58 3 69 54 69 134z" />
    <glyph glyph-name="chi" unicode="&#x3c7;" 
d="M556 0h-197l-82 136l-80 -136h-197l187 275l-180 263h197l73 -130l75 130h197l-180 -263z" />
    <glyph glyph-name="psi" unicode="&#x3c8;" horiz-adv-x="735" 
d="M680 269c0 -106 -12 -157 -57 -206c-32 -34 -86 -63 -173 -63v-174h-164v174c-87 0 -142 29 -174 63c-45 49 -57 100 -57 206v269h164v-322c0 -62 45 -82 67 -82v404h164v-404c22 0 66 20 66 82v322h164v-269z" />
    <glyph glyph-name="omega" unicode="&#x3c9;" horiz-adv-x="768" 
d="M725 269c0 -106 -10 -157 -55 -206c-31 -33 -82 -69 -148 -69c-74 0 -115 25 -138 59c-23 -34 -64 -59 -138 -59c-66 0 -117 36 -148 69c-45 49 -55 100 -55 206c0 105 14 157 59 206c32 34 81 69 168 69v-145c-20 0 -29 -8 -39 -18c-21 -21 -24 -59 -24 -112
s3 -91 24 -112c8 -8 18 -14 32 -14c21 0 39 23 39 53v164h164v-164c0 -30 18 -53 39 -53c14 0 24 6 32 14c21 21 24 59 24 112s-3 91 -24 112c-10 10 -19 18 -39 18v145c87 0 136 -35 168 -69c45 -49 59 -101 59 -206z" />
    <glyph glyph-name="iotadieresis" unicode="&#x3ca;" horiz-adv-x="341" 
d="M311 0h-87c-119 0 -167 85 -167 159v379h164v-367c0 -21 11 -33 33 -33h57v-138zM97 609h-134v145h134v-145zM323 609h-134v145h134v-145z" />
    <glyph glyph-name="upsilondieresis" unicode="&#x3cb;" horiz-adv-x="560" 
d="M510 269c0 -106 -12 -157 -57 -206c-32 -34 -86 -69 -173 -69s-141 35 -173 69c-45 49 -57 100 -57 206v269h164v-322c0 -62 44 -74 66 -74s66 12 66 74v322h164v-269zM233 609h-134v145h134v-145zM459 609h-134v145h134v-145z" />
    <glyph glyph-name="omicrontonos" unicode="&#x3cc;" horiz-adv-x="550" 
d="M507 269c0 -106 -14 -157 -59 -206c-32 -34 -86 -69 -173 -69s-141 35 -173 69c-45 49 -59 100 -59 206c0 105 14 157 59 206c32 34 86 69 173 69s141 -35 173 -69c45 -49 59 -101 59 -206zM343 269c0 53 -3 91 -24 112c-10 10 -24 15 -44 15s-34 -5 -44 -15
c-21 -21 -24 -59 -24 -112s3 -91 24 -112c10 -10 24 -15 44 -15s34 5 44 15c21 21 24 59 24 112zM341 636l-131 -54v172h131v-118z" />
    <glyph glyph-name="upsilontonos" unicode="&#x3cd;" horiz-adv-x="560" 
d="M510 269c0 -106 -12 -157 -57 -206c-32 -34 -86 -69 -173 -69s-141 35 -173 69c-45 49 -57 100 -57 206v269h164v-322c0 -62 44 -74 66 -74s66 12 66 74v322h164v-269zM346 636l-131 -54v172h131v-118z" />
    <glyph glyph-name="omegatonos" unicode="&#x3ce;" horiz-adv-x="768" 
d="M725 269c0 -106 -10 -157 -55 -206c-31 -33 -82 -69 -148 -69c-74 0 -115 25 -138 59c-23 -34 -64 -59 -138 -59c-66 0 -117 36 -148 69c-45 49 -55 100 -55 206c0 105 14 157 59 206c32 34 81 69 168 69v-145c-20 0 -29 -8 -39 -18c-21 -21 -24 -59 -24 -112
s3 -91 24 -112c8 -8 18 -14 32 -14c21 0 39 23 39 53v164h164v-164c0 -30 18 -53 39 -53c14 0 24 6 32 14c21 21 24 59 24 112s-3 91 -24 112c-10 10 -19 18 -39 18v145c87 0 136 -35 168 -69c45 -49 59 -101 59 -206zM451 636l-131 -54v172h131v-118z" />
    <glyph glyph-name="uni03D0" unicode="&#x3d0;" horiz-adv-x="584" 
d="M371 242c0 27 -1 56 -26 71c-13 8 -21 12 -49 12h-44v124h62c41 0 59 35 59 69c0 19 -11 35 -19 42c-11 10 -25 19 -49 19c-59 0 -79 -28 -79 -74v-293c0 -53 47 -71 64 -71c26 0 43 2 60 19c19 19 21 56 21 82zM535 230c0 -57 -5 -134 -47 -180
c-28 -30 -75 -56 -145 -56c-63 0 -102 30 -117 45v-213h-164v688c0 147 107 204 240 204c127 0 225 -66 225 -181c0 -35 -5 -81 -24 -106c-18 -24 -35 -37 -51 -44c18 -8 39 -23 51 -40c26 -37 32 -75 32 -117z" />
    <glyph glyph-name="uni0400" unicode="&#x400;" horiz-adv-x="608" 
d="M556 0h-484v712h484v-156h-309v-119h264v-156h-264v-125h309v-156zM375 782h-117l-101 180h153z" />
    <glyph glyph-name="afii10023" unicode="&#x401;" horiz-adv-x="608" 
d="M556 0h-484v712h484v-156h-309v-119h264v-156h-264v-125h309v-156zM488 781h-134v145h134v-145zM262 781h-134v145h134v-145z" />
    <glyph glyph-name="afii10051" unicode="&#x402;" horiz-adv-x="750" 
d="M700 229c0 -141 -97 -229 -238 -229h-42v150h29c44 0 76 30 76 78s-32 77 -76 77h-99v-305h-175v556h-145v156h525v-156h-205v-100h112c142 0 238 -88 238 -227z" />
    <glyph glyph-name="afii10052" unicode="&#x403;" 
d="M531 556h-284v-556h-175v712h459v-156zM419 962l-101 -180h-117l65 180h153z" />
    <glyph glyph-name="afii10053" unicode="&#x404;" horiz-adv-x="609" 
d="M588 222c-25 -153 -134 -228 -269 -228c-86 0 -146 27 -197 78c-73 73 -73 164 -73 284s0 211 73 284c51 51 111 78 197 78c135 0 244 -75 269 -228h-174c-12 40 -36 76 -94 76c-33 0 -58 -14 -72 -32c-13 -17 -23 -36 -26 -101h189v-152h-189c3 -67 13 -86 26 -103
c14 -18 39 -32 72 -32c58 0 82 36 94 76h174z" />
    <glyph glyph-name="afii10054" unicode="&#x405;" horiz-adv-x="593" 
d="M550 218c0 -145 -125 -224 -275 -224c-109 0 -198 20 -270 94l112 112c37 -37 102 -50 159 -50c69 0 102 23 102 64c0 17 -4 31 -14 42c-9 9 -24 16 -47 19l-86 12c-63 9 -111 30 -143 63c-33 34 -49 82 -49 143c0 130 98 225 260 225c102 0 179 -24 240 -85l-110 -110
c-37 37 -78 42 -135 42c-61 0 -86 -35 -86 -66c0 -9 3 -22 14 -33c9 -9 24 -18 49 -21l86 -12c64 -9 110 -29 140 -59c38 -37 53 -90 53 -156z" />
    <glyph glyph-name="afii10055" unicode="&#x406;" horiz-adv-x="319" 
d="M247 0h-175v712h175v-712z" />
    <glyph glyph-name="afii10056" unicode="&#x407;" horiz-adv-x="319" 
d="M247 0h-175v712h175v-712zM340 781h-134v145h134v-145zM114 781h-134v145h134v-145z" />
    <glyph glyph-name="afii10057" unicode="&#x408;" horiz-adv-x="516" 
d="M454 244c0 -169 -134 -250 -268 -250c-83 0 -136 20 -194 78l115 114c22 -22 40 -36 79 -36c54 0 93 30 93 98v464h175v-468z" />
    <glyph glyph-name="afii10058" unicode="&#x409;" horiz-adv-x="984" 
d="M779 229c0 41 -32 72 -76 72h-99v-145h99c44 0 76 32 76 73zM136 712h468v-254h112c142 0 238 -96 238 -229s-97 -229 -238 -229h-287v556h-124v-186c0 -298 -74 -370 -228 -370h-67v156h21c62 0 105 33 105 214v342z" />
    <glyph glyph-name="afii10059" unicode="&#x40a;" horiz-adv-x="988" 
d="M433 302h-186v-302h-175v712h175v-254h186v254h175v-254h112c142 0 238 -96 238 -229s-97 -229 -238 -229h-287v302zM783 229c0 41 -32 72 -76 72h-99v-145h99c44 0 76 32 76 73z" />
    <glyph glyph-name="afii10060" unicode="&#x40b;" horiz-adv-x="750" 
d="M700 0h-175v233c0 41 -32 72 -76 72h-99v-305h-175v556h-145v156h525v-156h-205v-100h112c142 0 238 -90 238 -223v-233z" />
    <glyph glyph-name="afii10061" unicode="&#x40c;" horiz-adv-x="654" 
d="M247 0h-175v712h175v-712zM664 0h-206l-210 374l192 338h201l-210 -331zM480 962l-101 -180h-117l65 180h153z" />
    <glyph glyph-name="uni040D" unicode="&#x40d;" horiz-adv-x="700" 
d="M628 0h-175v388l-228 -388h-153v712h175v-388l228 388h153v-712zM417 782h-117l-101 180h153z" />
    <glyph glyph-name="afii10062" unicode="&#x40e;" horiz-adv-x="601" 
d="M478 898c-3 -118 -95 -152 -172 -152s-169 34 -172 152h119c2 -40 25 -53 53 -53s51 13 53 53h119zM601 712l-250 -587c-27 -63 -79 -125 -170 -125h-97v156h62c52 0 71 39 78 65l1 4l-225 487h184l125 -298l113 298h179z" />
    <glyph glyph-name="afii10145" unicode="&#x40f;" horiz-adv-x="680" 
d="M424 0v-144h-168v144h-184v712h175v-556h186v556h175v-712h-184z" />
    <glyph glyph-name="afii10017" unicode="&#x410;" horiz-adv-x="653" 
d="M653 0h-183l-33 106h-219l-35 -106h-183l259 712h135zM391 252l-60 190l-64 -190h124z" />
    <glyph glyph-name="afii10018" unicode="&#x411;" horiz-adv-x="653" 
d="M604 229c0 -133 -88 -229 -238 -229h-294v712h486v-156h-311v-98h119c149 0 238 -96 238 -229zM429 229c0 41 -27 72 -71 72h-111v-144h111c44 0 71 31 71 72z" />
    <glyph glyph-name="afii10019" unicode="&#x412;" horiz-adv-x="653" 
d="M604 209c0 -127 -87 -209 -222 -209h-310v712h295c139 0 227 -78 227 -200c0 -63 -23 -107 -78 -147c63 -40 88 -84 88 -156zM419 497c0 36 -23 58 -63 58h-109v-116h109c40 0 63 22 63 58zM429 220c0 39 -24 62 -64 62h-118v-125h118c40 0 64 24 64 63z" />
    <glyph glyph-name="afii10020" unicode="&#x413;" 
d="M531 556h-284v-556h-175v712h459v-156z" />
    <glyph glyph-name="afii10021" unicode="&#x414;" horiz-adv-x="709" 
d="M690 -144h-168v144h-344v-144h-168v300h70c50 133 72 274 72 526v30h457v-556h81v-300zM434 156v400h-112v-20c0 -169 -27 -276 -64 -380h176z" />
    <glyph glyph-name="afii10022" unicode="&#x415;" horiz-adv-x="608" 
d="M556 0h-484v712h484v-156h-309v-119h264v-156h-264v-125h309v-156z" />
    <glyph glyph-name="afii10024" unicode="&#x416;" horiz-adv-x="949" 
d="M959 0h-201l-195 374l177 338h196l-195 -331zM562 0h-175v712h175v-712zM191 0h-201l218 381l-195 331h196l177 -338z" />
    <glyph glyph-name="afii10025" unicode="&#x417;" horiz-adv-x="600" 
d="M288 -6c-135 0 -244 75 -269 228h174c12 -40 36 -76 94 -76s88 31 88 72c0 44 -26 75 -86 75h-94v142h94c48 0 78 26 78 68c0 39 -31 65 -79 65c-58 0 -82 -38 -94 -78h-174c25 153 134 228 269 228c146 0 252 -79 252 -202c0 -64 -37 -118 -86 -148
c56 -28 96 -84 96 -156c0 -132 -110 -218 -263 -218z" />
    <glyph glyph-name="afii10026" unicode="&#x418;" horiz-adv-x="700" 
d="M628 0h-175v388l-228 -388h-153v712h175v-388l228 388h153v-712z" />
    <glyph glyph-name="afii10027" unicode="&#x419;" horiz-adv-x="700" 
d="M524 898c-3 -118 -95 -152 -172 -152s-169 34 -172 152h119c2 -40 25 -53 53 -53s51 13 53 53h119zM628 0h-175v388l-228 -388h-153v712h175v-388l228 388h153v-712z" />
    <glyph glyph-name="afii10028" unicode="&#x41a;" horiz-adv-x="654" 
d="M247 0h-175v712h175v-712zM664 0h-206l-210 374l192 338h201l-210 -331z" />
    <glyph glyph-name="afii10029" unicode="&#x41b;" horiz-adv-x="676" 
d="M604 0h-175v556h-124v-186c0 -298 -74 -370 -228 -370h-67v156h21c62 0 105 33 105 214v342h468v-712z" />
    <glyph glyph-name="afii10030" unicode="&#x41c;" horiz-adv-x="808" 
d="M736 0h-175v341l-101 -176h-112l-101 176v-341h-175v712h172l160 -314l160 314h172v-712z" />
    <glyph glyph-name="afii10031" unicode="&#x41d;" horiz-adv-x="680" 
d="M608 0h-175v282h-186v-282h-175v712h175v-274h186v274h175v-712z" />
    <glyph glyph-name="afii10032" unicode="&#x41e;" horiz-adv-x="640" 
d="M591 356c0 -120 0 -211 -73 -284c-51 -51 -111 -78 -198 -78s-147 27 -198 78c-73 73 -73 164 -73 284s0 211 73 284c51 51 111 78 198 78s147 -27 198 -78c73 -73 73 -164 73 -284zM416 356c0 130 -10 154 -26 175c-13 17 -38 31 -70 31s-57 -14 -70 -31
c-16 -21 -26 -45 -26 -175s10 -153 26 -174c13 -17 38 -32 70 -32s57 15 70 32c16 21 26 44 26 174z" />
    <glyph glyph-name="afii10033" unicode="&#x41f;" horiz-adv-x="680" 
d="M608 0h-175v556h-186v-556h-175v712h536v-712z" />
    <glyph glyph-name="afii10034" unicode="&#x420;" horiz-adv-x="627" 
d="M597 483c0 -117 -85 -229 -243 -229h-107v-254h-175v712h282c158 0 243 -112 243 -229zM422 483c0 37 -28 72 -76 72h-99v-144h99c48 0 76 35 76 72z" />
    <glyph glyph-name="afii10035" unicode="&#x421;" horiz-adv-x="609" 
d="M589 226c-26 -157 -134 -232 -269 -232c-87 0 -147 27 -198 78c-73 73 -73 164 -73 284s0 211 73 284c51 51 111 78 198 78c135 0 243 -75 269 -232h-178c-11 40 -33 76 -91 76c-32 0 -56 -13 -69 -30c-16 -21 -27 -46 -27 -176s11 -155 27 -176c13 -17 37 -30 69 -30
c58 0 80 36 91 76h178z" />
    <glyph glyph-name="afii10036" unicode="&#x422;" horiz-adv-x="585" 
d="M555 556h-175v-556h-175v556h-175v156h525v-156z" />
    <glyph glyph-name="afii10037" unicode="&#x423;" horiz-adv-x="601" 
d="M601 712l-250 -587c-27 -63 -79 -125 -170 -125h-97v156h62c52 0 71 39 78 65l1 4l-225 487h184l125 -298l113 298h179z" />
    <glyph glyph-name="afii10038" unicode="&#x424;" horiz-adv-x="859" 
d="M819 377c0 -178 -89 -289 -302 -298v-85h-175v85c-213 9 -302 120 -302 298s89 289 302 298v73h175v-73c213 -9 302 -120 302 -298zM644 377c0 103 -39 144 -130 150v-300c91 6 130 47 130 150zM345 227v300c-91 -6 -130 -47 -130 -150s39 -144 130 -150z" />
    <glyph glyph-name="afii10039" unicode="&#x425;" horiz-adv-x="634" 
d="M634 0h-200l-117 219l-117 -219h-200l222 365l-208 347h199l104 -201l104 201h199l-208 -347z" />
    <glyph glyph-name="afii10040" unicode="&#x426;" horiz-adv-x="708" 
d="M689 -144h-168v144h-449v712h175v-556h186v556h175v-556h81v-300z" />
    <glyph glyph-name="afii10041" unicode="&#x427;" horiz-adv-x="651" 
d="M579 0h-175v253c-33 -4 -86 -15 -169 -15c-88 0 -178 62 -178 171v303h175v-254c0 -39 24 -63 64 -63c39 0 88 5 108 9v308h175v-712z" />
    <glyph glyph-name="afii10042" unicode="&#x428;" horiz-adv-x="983" 
d="M911 0h-839v712h175v-556h157v556h175v-556h157v556h175v-712z" />
    <glyph glyph-name="afii10043" unicode="&#x429;" horiz-adv-x="1011" 
d="M992 -144h-168v144h-752v712h175v-556h157v556h175v-556h157v556h175v-556h81v-300z" />
    <glyph glyph-name="afii10044" unicode="&#x42a;" horiz-adv-x="726" 
d="M696 229c0 -133 -97 -229 -238 -229h-287v556h-141v156h316v-254h112c142 0 238 -96 238 -229zM521 229c0 41 -32 72 -76 72h-99v-145h99c44 0 76 32 76 73z" />
    <glyph glyph-name="afii10045" unicode="&#x42b;" horiz-adv-x="910" 
d="M838 0h-175v712h175v-712zM597 229c0 -133 -97 -229 -238 -229h-287v712h175v-254h112c142 0 238 -96 238 -229zM422 229c0 41 -32 72 -76 72h-99v-145h99c44 0 76 32 76 73z" />
    <glyph glyph-name="afii10046" unicode="&#x42c;" horiz-adv-x="627" 
d="M597 229c0 -133 -97 -229 -238 -229h-287v712h175v-254h112c142 0 238 -96 238 -229zM422 229c0 41 -32 72 -76 72h-99v-145h99c44 0 76 32 76 73z" />
    <glyph glyph-name="afii10047" unicode="&#x42d;" horiz-adv-x="609" 
d="M290 -6c-135 0 -244 75 -269 228h174c12 -40 36 -76 94 -76c33 0 58 14 72 32c13 17 23 36 27 103h-190v152h189c-4 65 -13 84 -26 101c-14 18 -39 32 -72 32c-58 0 -82 -36 -94 -76h-174c25 153 134 228 269 228c87 0 147 -27 198 -78c73 -73 73 -164 73 -284
s0 -211 -73 -284c-51 -51 -111 -78 -198 -78z" />
    <glyph glyph-name="afii10048" unicode="&#x42e;" horiz-adv-x="920" 
d="M871 356c0 -120 0 -211 -73 -284c-51 -51 -111 -78 -198 -78s-147 27 -198 78c-57 57 -70 125 -73 210h-82v-282h-175v712h175v-274h83c3 81 16 146 72 202c51 51 111 78 198 78s147 -27 198 -78c73 -73 73 -164 73 -284zM696 356c0 130 -10 154 -26 175
c-13 17 -38 31 -70 31s-57 -14 -70 -31c-16 -21 -26 -45 -26 -175s10 -153 26 -174c13 -17 38 -32 70 -32s57 15 70 32c16 21 26 44 26 174z" />
    <glyph glyph-name="afii10049" unicode="&#x42f;" horiz-adv-x="649" 
d="M331 254l-103 -254h-208l137 291c-65 40 -105 109 -105 192c0 141 102 229 243 229h282v-712h-175v254h-71zM402 411v148h-101c-44 0 -76 -32 -76 -73s32 -75 76 -75h101z" />
    <glyph glyph-name="afii10065" unicode="&#x430;" horiz-adv-x="536" 
d="M483 0h-160v44c-33 -33 -63 -49 -120 -49c-54 0 -99 18 -129 48c-31 31 -47 76 -47 126c0 81 55 156 186 156h106v14c0 49 -24 67 -81 67c-37 0 -59 -12 -85 -38l-102 102c55 55 104 74 195 74c154 0 237 -64 237 -195v-349zM319 202v14h-78c-38 0 -57 -17 -57 -44
c0 -25 19 -44 59 -44c27 0 42 4 59 19c13 12 17 27 17 55z" />
    <glyph glyph-name="afii10066" unicode="&#x431;" 
d="M352 263c0 45 -7 74 -18 91c-12 18 -29 23 -50 23s-38 -4 -50 -22c-11 -17 -18 -46 -18 -92c0 -54 8 -86 21 -103c12 -15 28 -18 47 -18c20 0 36 4 48 20c12 17 20 49 20 101zM322 514c59 0 96 -15 124 -40c48 -43 70 -120 70 -209c0 -107 -25 -164 -65 -207
c-39 -42 -97 -64 -164 -64c-81 0 -138 23 -177 64c-41 44 -58 112 -58 224c0 219 3 318 113 389c74 48 238 46 299 49v-141c-40 -3 -125 1 -186 -18c-50 -15 -91 -42 -91 -102c17 25 65 55 135 55z" />
    <glyph glyph-name="afii10067" unicode="&#x432;" 
d="M446 276c48 -30 67 -64 67 -118c0 -96 -66 -158 -168 -158h-283v538h272c105 0 171 -59 171 -151c0 -48 -17 -81 -59 -111zM223 331h72c31 0 48 17 48 45c0 27 -17 43 -48 43h-72v-88zM223 119h79c30 0 49 18 49 47c0 30 -19 47 -49 47h-79v-94z" />
    <glyph glyph-name="afii10068" unicode="&#x433;" horiz-adv-x="444" 
d="M430 392h-201v-392h-164v538h365v-146z" />
    <glyph glyph-name="afii10069" unicode="&#x434;" horiz-adv-x="596" 
d="M578 -114h-154v114h-260v-114h-154v260h53c32 99 46 179 46 369v23h406v-392h63v-260zM352 146v246h-87c0 -115 -19 -179 -40 -246h127z" />
    <glyph glyph-name="afii10070" unicode="&#x435;" horiz-adv-x="559" 
d="M521 216h-322c0 -44 34 -84 95 -84c57 0 82 16 111 45l98 -98c-55 -55 -109 -85 -209 -85c-119 0 -256 43 -256 275c0 176 100 275 241 275c156 0 242 -112 242 -260v-68zM359 325c0 13 -2 27 -9 42c-10 22 -32 42 -71 42s-61 -20 -71 -42c-7 -15 -9 -29 -9 -42h160z" />
    <glyph glyph-name="afii10072" unicode="&#x436;" horiz-adv-x="805" 
d="M810 0h-188l-136 283l133 255h184l-147 -250zM485 0h-165v538h165v-538zM183 0h-188l154 288l-147 250h184l133 -255z" />
    <glyph glyph-name="afii10073" unicode="&#x437;" horiz-adv-x="504" 
d="M461 163c0 -102 -96 -169 -207 -169c-84 0 -182 18 -246 76l93 101c32 -27 82 -40 124 -40c39 0 73 13 73 45c0 29 -22 40 -60 40h-83v114h79c37 0 58 18 58 44c0 28 -30 39 -76 39c-33 0 -71 -12 -101 -34l-90 99c61 51 145 66 228 66c103 0 200 -50 200 -146
c0 -49 -29 -91 -67 -114c44 -22 75 -65 75 -121z" />
    <glyph glyph-name="afii10074" unicode="&#x438;" horiz-adv-x="596" 
d="M226 0h-164v538h164v-271l144 271h164v-538h-164v281z" />
    <glyph glyph-name="afii10075" unicode="&#x439;" horiz-adv-x="596" 
d="M226 0h-164v538h164v-271l144 271h164v-538h-164v281zM470 732c-2 -118 -95 -152 -172 -152s-169 34 -172 152h119c2 -40 25 -53 53 -53s51 13 53 53h119z" />
    <glyph glyph-name="afii10076" unicode="&#x43a;" horiz-adv-x="562" 
d="M226 0h-165v538h165v-538zM567 0h-192l-148 283l145 255h188l-163 -250z" />
    <glyph glyph-name="afii10077" unicode="&#x43b;" horiz-adv-x="578" 
d="M516 0h-164v392h-93v-98c0 -234 -58 -294 -173 -294h-79v138h16c44 0 78 5 78 181v219h415v-538z" />
    <glyph glyph-name="afii10078" unicode="&#x43c;" horiz-adv-x="689" 
d="M627 0h-164v268l-76 -143h-85l-76 143v-268h-164v538h162l121 -237l121 237h161v-538z" />
    <glyph glyph-name="afii10079" unicode="&#x43d;" horiz-adv-x="579" 
d="M226 0h-164v538h164v-191h127v191h164v-538h-164v201h-127v-201z" />
    <glyph glyph-name="afii10080" unicode="&#x43e;" horiz-adv-x="550" 
d="M507 269c0 -106 -14 -157 -59 -206c-32 -34 -86 -69 -173 -69s-141 35 -173 69c-45 49 -59 100 -59 206c0 105 14 157 59 206c32 34 86 69 173 69s141 -35 173 -69c45 -49 59 -101 59 -206zM343 269c0 53 -3 91 -24 112c-10 10 -24 15 -44 15s-34 -5 -44 -15
c-21 -21 -24 -59 -24 -112s3 -91 24 -112c10 -10 24 -15 44 -15s34 5 44 15c21 21 24 59 24 112z" />
    <glyph glyph-name="afii10081" unicode="&#x43f;" horiz-adv-x="574" 
d="M226 0h-164v538h455v-538h-164v392h-127v-392z" />
    <glyph glyph-name="afii10082" unicode="&#x440;" horiz-adv-x="569" 
d="M526 269c0 -93 -1 -174 -51 -226c-31 -32 -77 -49 -129 -49c-53 0 -90 15 -120 45v-213h-164v712h159v-44c33 33 68 50 124 50c52 0 99 -17 130 -49c50 -52 51 -133 51 -226zM362 269c0 78 -7 127 -68 127s-68 -49 -68 -127s7 -127 68 -127s68 49 68 127z" />
    <glyph glyph-name="afii10083" unicode="&#x441;" horiz-adv-x="475" 
d="M457 63c-31 -28 -45 -38 -74 -50c-31 -13 -65 -19 -103 -19c-156 0 -242 99 -242 280c0 171 89 270 242 270c38 0 72 -6 103 -19c29 -12 43 -22 74 -50l-111 -111c-26 24 -41 32 -66 32c-53 0 -78 -41 -78 -127s25 -127 78 -127c25 0 40 7 66 32z" />
    <glyph glyph-name="afii10084" unicode="&#x442;" horiz-adv-x="462" 
d="M452 392h-139v-392h-164v392h-139v146h442v-146z" />
    <glyph glyph-name="afii10085" unicode="&#x443;" horiz-adv-x="514" 
d="M518 538l-223 -602c-16 -43 -37 -73 -67 -92c-26 -16 -57 -24 -96 -24h-62v148h35c32 0 45 10 55 40l15 45l-179 485h172l91 -279l87 279h172z" />
    <glyph glyph-name="afii10086" unicode="&#x444;" horiz-adv-x="746" 
d="M710 274c0 -184 -106 -265 -255 -277v-171h-164v171c-149 12 -255 93 -255 277c0 183 106 255 255 267v171h164v-171c149 -12 255 -84 255 -267zM546 269c0 95 -38 125 -93 127v-254c57 2 93 33 93 127zM293 142v254c-55 -2 -93 -32 -93 -127c0 -94 36 -125 93 -127z" />
    <glyph glyph-name="afii10087" unicode="&#x445;" 
d="M556 0h-197l-82 136l-80 -136h-197l187 275l-180 263h197l73 -130l75 130h197l-180 -263z" />
    <glyph glyph-name="afii10088" unicode="&#x446;" horiz-adv-x="603" 
d="M585 -114h-154v114h-369v538h164v-392h127v392h164v-392h68v-260z" />
    <glyph glyph-name="afii10089" unicode="&#x447;" 
d="M494 0h-164v178c-32 -5 -72 -11 -133 -11c-81 0 -148 57 -148 143v228h164v-179c0 -30 18 -48 49 -48c24 0 51 4 68 6v221h164v-538z" />
    <glyph glyph-name="afii10090" unicode="&#x448;" horiz-adv-x="834" 
d="M62 0v538h164v-392h109v392h164v-392h109v392h164v-538h-710z" />
    <glyph glyph-name="afii10091" unicode="&#x449;" horiz-adv-x="858" 
d="M840 -114h-154v114h-624v538h164v-392h109v392h164v-392h109v392h164v-392h68v-260z" />
    <glyph glyph-name="afii10092" unicode="&#x44a;" horiz-adv-x="607" 
d="M579 177c0 -103 -76 -177 -184 -177h-268v392h-114v146h278v-184h104c109 0 184 -74 184 -177zM417 177c0 29 -22 50 -53 50h-78v-100h78c31 0 53 21 53 50z" />
    <glyph glyph-name="afii10093" unicode="&#x44b;" horiz-adv-x="789" 
d="M514 177c0 -103 -76 -177 -184 -177h-268v538h164v-184h104c109 0 184 -74 184 -177zM352 177c0 29 -22 50 -53 50h-78v-100h78c31 0 53 21 53 50zM563 538h164v-538h-164v538z" />
    <glyph glyph-name="afii10094" unicode="&#x44c;" horiz-adv-x="542" 
d="M514 177c0 -103 -76 -177 -184 -177h-268v538h164v-184h104c109 0 184 -74 184 -177zM352 177c0 29 -22 50 -53 50h-78v-100h78c31 0 53 21 53 50z" />
    <glyph glyph-name="afii10095" unicode="&#x44d;" horiz-adv-x="475" 
d="M437 274c0 -181 -86 -280 -242 -280c-74 0 -123 20 -177 69l108 108c27 -25 43 -33 69 -33c43 0 68 26 78 76h-124v109h124c-10 51 -35 77 -78 77c-26 0 -42 -9 -69 -33l-108 108c54 49 103 69 177 69c153 0 242 -99 242 -270z" />
    <glyph glyph-name="afii10096" unicode="&#x44e;" horiz-adv-x="800" 
d="M757 269c0 -106 -14 -157 -59 -206c-32 -34 -86 -69 -173 -69s-141 35 -173 69c-35 38 -51 90 -57 141h-69v-204h-164v538h164v-194h70c6 51 23 95 56 131c32 34 86 69 173 69s141 -35 173 -69c45 -49 59 -101 59 -206zM593 269c0 53 -3 91 -24 112c-10 10 -24 15 -44 15
s-34 -5 -44 -15c-21 -21 -24 -59 -24 -112s3 -91 24 -112c10 -10 24 -15 44 -15s34 5 44 15c21 21 24 59 24 112z" />
    <glyph glyph-name="afii10097" unicode="&#x44f;" horiz-adv-x="557" 
d="M334 309v99h-80c-31 0 -52 -22 -52 -50s21 -49 52 -49h80zM215 0h-191l106 219c-52 27 -88 78 -88 146c0 100 77 173 184 173h269v-538h-164v180h-42z" />
    <glyph glyph-name="uni0450" unicode="&#x450;" horiz-adv-x="559" 
d="M349 610h-117l-101 180h153zM521 216h-322c0 -44 34 -84 95 -84c57 0 82 16 111 45l98 -98c-55 -55 -109 -85 -209 -85c-119 0 -256 43 -256 275c0 176 100 275 241 275c156 0 242 -112 242 -260v-68zM359 325c0 13 -2 27 -9 42c-10 22 -32 42 -71 42s-61 -20 -71 -42
c-7 -15 -9 -29 -9 -42h160z" />
    <glyph glyph-name="afii10071" unicode="&#x451;" horiz-adv-x="559" 
d="M521 216h-322c0 -44 34 -84 95 -84c57 0 82 16 111 45l98 -98c-55 -55 -109 -85 -209 -85c-119 0 -256 43 -256 275c0 176 100 275 241 275c156 0 242 -112 242 -260v-68zM359 325c0 13 -2 27 -9 42c-10 22 -32 42 -71 42s-61 -20 -71 -42c-7 -15 -9 -29 -9 -42h160z
M237 609h-134v145h134v-145zM463 609h-134v145h134v-145z" />
    <glyph glyph-name="afii10099" unicode="&#x452;" horiz-adv-x="579" 
d="M268 -180v138h37c40 0 53 32 53 53v241c0 62 -44 74 -66 74s-66 -12 -66 -74v-252h-164v511h-42v126h42v75h164v-75h217v-126h-217v-87c32 33 76 50 121 50c51 0 92 -17 121 -46c46 -46 54 -97 54 -154v-274c0 -96 -38 -180 -187 -180h-67z" />
    <glyph glyph-name="afii10100" unicode="&#x453;" horiz-adv-x="444" 
d="M430 392h-201v-392h-164v538h365v-146zM364 790l-101 -180h-117l65 180h153z" />
    <glyph glyph-name="afii10101" unicode="&#x454;" horiz-adv-x="475" 
d="M457 63c-54 -49 -103 -69 -177 -69c-156 0 -242 99 -242 280c0 171 89 270 242 270c74 0 123 -20 177 -69l-108 -108c-27 24 -43 33 -69 33c-43 0 -68 -26 -78 -77h124v-109h-124c10 -50 35 -76 78 -76c26 0 42 8 69 33z" />
    <glyph glyph-name="afii10102" unicode="&#x455;" horiz-adv-x="504" 
d="M477 176c0 -127 -108 -182 -233 -182c-81 0 -160 4 -234 78l106 106c45 -45 103 -45 131 -45c24 0 70 7 70 35c0 15 -7 31 -39 34l-83 8c-93 9 -156 51 -156 156c0 119 107 178 214 178c88 0 159 -13 212 -66l-101 -101c-27 27 -72 32 -114 32c-40 0 -53 -19 -53 -31
c0 -16 8 -27 35 -30l83 -8c113 -11 162 -78 162 -164z" />
    <glyph glyph-name="afii10103" unicode="&#x456;" horiz-adv-x="288" 
d="M226 0h-164v517h164v-517zM226 593h-164v125h164v-125z" />
    <glyph glyph-name="afii10104" unicode="&#x457;" horiz-adv-x="288" 
d="M226 0h-164v517h164v-517zM98 609h-134v145h134v-145zM324 609h-134v145h134v-145z" />
    <glyph glyph-name="afii10105" unicode="&#x458;" horiz-adv-x="288" 
d="M226 -21c0 -74 -48 -159 -167 -159h-87v138h57c22 0 33 12 33 33v526h164v-538zM226 593h-164v125h164v-125z" />
    <glyph glyph-name="afii10106" unicode="&#x459;" horiz-adv-x="834" 
d="M644 177c0 29 -22 50 -53 50h-78v-100h78c31 0 53 21 53 50zM101 538h417v-184h104c109 0 184 -74 184 -177s-76 -177 -184 -177h-268v392h-95v-98c0 -234 -58 -294 -173 -294h-79v138h16c44 0 78 5 78 181v219z" />
    <glyph glyph-name="afii10107" unicode="&#x45a;" horiz-adv-x="833" 
d="M805 177c0 -103 -76 -177 -184 -177h-268v208h-127v-208h-164v538h164v-184h127v184h164v-184h104c109 0 184 -74 184 -177zM643 177c0 29 -22 50 -53 50h-78v-100h78c31 0 53 21 53 50z" />
    <glyph glyph-name="afii10108" unicode="&#x45b;" horiz-adv-x="579" 
d="M522 0h-164v252c0 62 -44 74 -66 74s-66 -12 -66 -74v-252h-164v511h-42v126h42v75h164v-75h217v-126h-217v-87c32 33 76 50 121 50c51 0 92 -17 121 -46c46 -46 54 -97 54 -154v-274z" />
    <glyph glyph-name="afii10109" unicode="&#x45c;" horiz-adv-x="562" 
d="M226 0h-165v538h165v-538zM567 0h-192l-148 283l145 255h188l-163 -250zM434 790l-101 -180h-117l65 180h153z" />
    <glyph glyph-name="uni045D" unicode="&#x45d;" horiz-adv-x="596" 
d="M226 0h-164v538h164v-271l144 271h164v-538h-164v281zM364 610h-117l-101 180h153z" />
    <glyph glyph-name="afii10110" unicode="&#x45e;" horiz-adv-x="514" 
d="M430 732c-2 -118 -95 -152 -172 -152s-169 34 -172 152h119c2 -40 25 -53 53 -53s51 13 53 53h119zM518 538l-223 -602c-16 -43 -37 -73 -67 -92c-26 -16 -57 -24 -96 -24h-62v148h35c32 0 45 10 55 40l15 45l-179 485h172l91 -279l87 279h172z" />
    <glyph glyph-name="afii10193" unicode="&#x45f;" horiz-adv-x="579" 
d="M365 -114h-154v114h-149v538h164v-392h127v392h164v-538h-152v-114z" />
    <glyph glyph-name="afii10146" unicode="&#x462;" horiz-adv-x="664" 
d="M625 229c0 -133 -97 -229 -238 -229h-287v528h-65v134h65v50h175v-50h90v-134h-90v-70h112c142 0 238 -96 238 -229zM450 229c0 41 -32 72 -76 72h-99v-145h99c44 0 76 32 76 73z" />
    <glyph glyph-name="afii10194" unicode="&#x463;" horiz-adv-x="558" 
d="M254 407v-53h104c109 0 184 -74 184 -177s-76 -177 -184 -177h-268v407h-44v102h44v29h164v-29h68v-102h-68zM380 177c0 29 -22 50 -53 50h-78v-100h78c31 0 53 21 53 50z" />
    <glyph glyph-name="afii10147" unicode="&#x472;" horiz-adv-x="640" 
d="M414 438c-4 60 -12 77 -24 93c-13 17 -38 31 -70 31s-57 -14 -70 -31c-12 -16 -20 -33 -24 -93h188zM415 292h-190c3 -75 12 -93 25 -110s38 -32 70 -32s57 15 70 32s22 35 25 110zM591 356c0 -120 0 -211 -73 -284c-51 -51 -111 -78 -198 -78s-147 27 -198 78
c-73 73 -73 164 -73 284s0 211 73 284c51 51 111 78 198 78s147 -27 198 -78c73 -73 73 -164 73 -284z" />
    <glyph glyph-name="afii10195" unicode="&#x473;" horiz-adv-x="550" 
d="M507 269c0 -106 -14 -157 -59 -206c-32 -34 -86 -69 -173 -69s-141 35 -173 69c-45 49 -59 100 -59 206c0 105 14 157 59 206c32 34 86 69 173 69s141 -35 173 -69c45 -49 59 -101 59 -206zM319 157c13 13 19 33 22 59h-132c2 -26 9 -46 22 -59c10 -10 24 -15 44 -15
s34 5 44 15zM231 381c-13 -13 -19 -32 -22 -56h132c-3 24 -10 43 -22 56c-10 10 -24 15 -44 15s-34 -5 -44 -15z" />
    <glyph glyph-name="afii10148" unicode="&#x474;" horiz-adv-x="601" 
d="M541 531l-176 -531h-130l-235 712h181l120 -398l84 282c22 75 71 116 159 116h80v-138h-24c-32 0 -49 -13 -59 -43z" />
    <glyph glyph-name="afii10196" unicode="&#x475;" horiz-adv-x="551" 
d="M323 0h-125l-198 538h172l89 -279l51 163c12 39 31 69 59 89c25 18 58 27 100 27h66v-138h-24c-32 0 -48 -13 -59 -43z" />
    <glyph glyph-name="afii10050" unicode="&#x490;" 
d="M531 556h-284v-556h-175v712h291v144h168v-300z" />
    <glyph glyph-name="afii10098" unicode="&#x491;" horiz-adv-x="444" 
d="M430 392h-201v-392h-164v538h211v114h154v-260z" />
    <glyph glyph-name="uni0492" unicode="&#x492;" horiz-adv-x="584" 
d="M559 556h-284v-130h90v-134h-90v-292h-175v292h-65v134h65v286h459v-156z" />
    <glyph glyph-name="uni0493" unicode="&#x493;" horiz-adv-x="463" 
d="M449 392h-201v-47h68v-102h-68v-243h-164v243h-44v102h44v193h365v-146z" />
    <glyph glyph-name="uni0496" unicode="&#x496;" horiz-adv-x="981" 
d="M936 712l-195 -331l128 -225h90v-300h-168v144h-33l-195 374l177 338h196zM191 0h-201l218 381l-195 331h196l177 -338zM562 0h-175v712h175v-712z" />
    <glyph glyph-name="uni0497" unicode="&#x497;" horiz-adv-x="827" 
d="M803 538l-147 -250l76 -142h78v-260h-154v114h-34l-136 283l133 255h184zM183 0h-188l154 288l-147 250h184l133 -255zM485 0h-165v538h165v-538z" />
    <glyph glyph-name="uni049A" unicode="&#x49a;" horiz-adv-x="689" 
d="M641 712l-210 -331l137 -225h96v-300h-168v144h-38l-210 374l192 338h201zM247 0h-175v712h175v-712z" />
    <glyph glyph-name="uni049B" unicode="&#x49b;" horiz-adv-x="585" 
d="M560 538l-163 -250l84 -142h86v-260h-154v114h-38l-148 283l145 255h188zM226 0h-165v538h165v-538z" />
    <glyph glyph-name="uni049C" unicode="&#x49c;" horiz-adv-x="750" 
d="M292 565h109v-127h26l109 274h201l-165 -349l188 -363h-206l-127 282h-26v-127h-109v127h-45v-282h-175v712h175v-274h45v127z" />
    <glyph glyph-name="uni049D" unicode="&#x49d;" horiz-adv-x="651" 
d="M259 94v110h-34v-204h-164v538h164v-199h34v110h108v-110h24l70 199h188l-113 -250l120 -288h-192l-65 204h-32v-110h-108z" />
    <glyph glyph-name="uni04A2" unicode="&#x4a2;" horiz-adv-x="708" 
d="M608 712v-556h81v-300h-168v144h-88v282h-186v-282h-175v712h175v-274h186v274h175z" />
    <glyph glyph-name="uni04A3" unicode="&#x4a3;" horiz-adv-x="603" 
d="M226 0h-164v538h164v-191h127v191h164v-392h68v-260h-154v114h-78v201h-127v-201z" />
    <glyph glyph-name="uni04AE" unicode="&#x4ae;" horiz-adv-x="605" 
d="M605 712l-215 -422v-290h-175v290l-215 422h191l112 -256l111 256h191z" />
    <glyph glyph-name="uni04AF" unicode="&#x4af;" horiz-adv-x="521" 
d="M521 538l-180 -519v-193h-162v193l-179 519h172l89 -312l88 312h172z" />
    <glyph glyph-name="uni04B0" unicode="&#x4b0;" horiz-adv-x="605" 
d="M605 712l-215 -422h90v-134h-90v-156h-175v156h-90v134h90l-215 422h191l112 -256l111 256h191z" />
    <glyph glyph-name="uni04B1" unicode="&#x4b1;" horiz-adv-x="521" 
d="M521 538l-177 -511h101v-126h-104v-75h-162v75h-104v126h101l-176 511h172l89 -312l88 312h172z" />
    <glyph glyph-name="uni04B2" unicode="&#x4b2;" horiz-adv-x="664" 
d="M620 712l-208 -347l127 -209h95v-300h-168v144h-32l-117 219l-117 -219h-200l222 365l-208 347h199l104 -201l104 201h199z" />
    <glyph glyph-name="uni04B3" unicode="&#x4b3;" horiz-adv-x="574" 
d="M549 538l-180 -263l87 -129h100v-260h-154v114h-43l-82 136l-80 -136h-197l187 275l-180 263h197l73 -130l75 130h197z" />
    <glyph glyph-name="uni04B6" unicode="&#x4b6;" horiz-adv-x="679" 
d="M579 712v-556h81v-300h-168v144h-88v253c-33 -4 -86 -15 -169 -15c-88 0 -178 62 -178 171v303h175v-254c0 -39 24 -63 64 -63c39 0 88 5 108 9v308h175z" />
    <glyph glyph-name="uni04B7" unicode="&#x4b7;" horiz-adv-x="580" 
d="M494 538v-392h72v-260h-154v114h-82v178c-32 -5 -72 -11 -133 -11c-81 0 -148 57 -148 143v228h164v-179c0 -30 18 -48 49 -48c24 0 51 4 68 6v221h164z" />
    <glyph glyph-name="uni04B8" unicode="&#x4b8;" horiz-adv-x="671" 
d="M599 0h-175v253l-37 -5v-135h-119v125h-23c-93 0 -188 62 -188 171v303h175v-254c0 -27 13 -48 36 -57v122h119v-124c15 1 28 3 37 5v308h175v-712z" />
    <glyph glyph-name="uni04B9" unicode="&#x4b9;" horiz-adv-x="579" 
d="M237 61v106h-17c-94 0 -171 57 -171 143v228h164v-179c0 -17 8 -31 24 -39v97h93v-103l23 3v221h164v-538h-164v178l-23 -3v-114h-93z" />
    <glyph glyph-name="uni04BA" unicode="&#x4ba;" horiz-adv-x="651" 
d="M594 0h-175v254c0 39 -24 63 -64 63c-39 0 -88 -5 -108 -9v-308h-175v712h175v-253c33 4 86 15 169 15c88 0 178 -62 178 -171v-303z" />
    <glyph glyph-name="uni04BB" unicode="&#x4bb;" 
d="M507 0h-164v179c0 30 -18 48 -49 48c-24 0 -51 -4 -68 -6v-221h-164v538h164v-178c32 5 72 11 133 11c81 0 148 -57 148 -143v-228z" />
    <glyph glyph-name="uni04C0" unicode="&#x4c0;" horiz-adv-x="319" 
d="M247 0h-175v712h175v-712z" />
    <glyph glyph-name="uni04CF" unicode="&#x4cf;" horiz-adv-x="278" 
d="M221 0h-164v712h164v-712z" />
    <glyph glyph-name="uni04D8" unicode="&#x4d8;" horiz-adv-x="647" 
d="M49 311v99h373c-2 83 -12 103 -25 121c-13 17 -37 31 -69 31c-60 0 -88 -26 -102 -80h-176c17 117 95 236 278 236c86 0 146 -27 197 -78c73 -73 73 -164 73 -284s0 -211 -73 -284c-51 -51 -111 -78 -197 -78c-78 0 -146 17 -207 80c-54 55 -72 122 -72 237zM223 264v-10
c0 -27 7 -56 27 -76c16 -17 41 -28 78 -28c32 0 56 13 69 30c11 14 19 31 23 84h-197z" />
    <glyph glyph-name="afii10846" unicode="&#x4d9;" horiz-adv-x="559" 
d="M38 322h322c0 44 -34 84 -95 84c-57 0 -82 -16 -111 -45l-98 98c55 55 109 85 209 85c119 0 256 -43 256 -275c0 -176 -100 -275 -241 -275c-156 0 -242 112 -242 260v68zM200 213c0 -13 2 -27 9 -42c10 -22 32 -42 71 -42s61 20 71 42c7 15 9 29 9 42h-160z" />
    <glyph glyph-name="uni04E2" unicode="&#x4e2;" horiz-adv-x="700" 
d="M628 0h-175v388l-228 -388h-153v712h175v-388l228 388h153v-712zM513 791h-326v105h326v-105z" />
    <glyph glyph-name="uni04E3" unicode="&#x4e3;" horiz-adv-x="596" 
d="M226 0h-164v538h164v-271l144 271h164v-538h-164v281zM486 629h-326v105h326v-105z" />
    <glyph glyph-name="uni04E8" unicode="&#x4e8;" horiz-adv-x="640" 
d="M414 438c-4 60 -12 77 -24 93c-13 17 -38 31 -70 31s-57 -14 -70 -31c-12 -16 -20 -33 -24 -93h188zM415 292h-190c3 -75 12 -93 25 -110s38 -32 70 -32s57 15 70 32s22 35 25 110zM591 356c0 -120 0 -211 -73 -284c-51 -51 -111 -78 -198 -78s-147 27 -198 78
c-73 73 -73 164 -73 284s0 211 73 284c51 51 111 78 198 78s147 -27 198 -78c73 -73 73 -164 73 -284z" />
    <glyph glyph-name="uni04E9" unicode="&#x4e9;" horiz-adv-x="550" 
d="M507 269c0 -106 -14 -157 -59 -206c-32 -34 -86 -69 -173 -69s-141 35 -173 69c-45 49 -59 100 -59 206c0 105 14 157 59 206c32 34 86 69 173 69s141 -35 173 -69c45 -49 59 -101 59 -206zM319 157c13 13 19 33 22 59h-132c2 -26 9 -46 22 -59c10 -10 24 -15 44 -15
s34 5 44 15zM231 381c-13 -13 -19 -32 -22 -56h132c-3 24 -10 43 -22 56c-10 10 -24 15 -44 15s-34 -5 -44 -15z" />
    <glyph glyph-name="uni04EE" unicode="&#x4ee;" horiz-adv-x="601" 
d="M601 712l-250 -587c-27 -63 -79 -125 -170 -125h-97v156h62c52 0 71 39 78 65l1 4l-225 487h184l125 -298l113 298h179zM472 791h-326v105h326v-105z" />
    <glyph glyph-name="uni04EF" unicode="&#x4ef;" horiz-adv-x="514" 
d="M518 538l-223 -602c-16 -43 -37 -73 -67 -92c-26 -16 -57 -24 -96 -24h-62v148h35c32 0 45 10 55 40l15 45l-179 485h172l91 -279l87 279h172zM425 629h-326v105h326v-105z" />
    <glyph glyph-name="Wgrave" unicode="&#x1e80;" horiz-adv-x="906" 
d="M906 712l-195 -712h-143l-115 351l-115 -351h-142l-196 712h183l93 -376l115 376h124l115 -376l93 376h183zM520 782h-117l-101 180h153z" />
    <glyph glyph-name="wgrave" unicode="&#x1e81;" horiz-adv-x="780" 
d="M780 538l-162 -538h-131l-97 295l-97 -295h-131l-162 538h173l67 -279l93 279h114l93 -279l67 279h173zM449 610h-117l-101 180h153z" />
    <glyph glyph-name="Wacute" unicode="&#x1e82;" horiz-adv-x="906" 
d="M906 712l-195 -712h-143l-115 351l-115 -351h-142l-196 712h183l93 -376l115 376h124l115 -376l93 376h183zM604 962l-101 -180h-117l65 180h153z" />
    <glyph glyph-name="wacute" unicode="&#x1e83;" horiz-adv-x="780" 
d="M780 538l-162 -538h-131l-97 295l-97 -295h-131l-162 538h173l67 -279l93 279h114l93 -279l67 279h173zM549 790l-101 -180h-117l65 180h153z" />
    <glyph glyph-name="Wdieresis" unicode="&#x1e84;" horiz-adv-x="906" 
d="M906 712l-195 -712h-143l-115 351l-115 -351h-142l-196 712h183l93 -376l115 376h124l115 -376l93 376h183zM633 781h-134v145h134v-145zM407 781h-134v145h134v-145z" />
    <glyph glyph-name="wdieresis" unicode="&#x1e85;" horiz-adv-x="780" 
d="M780 538l-162 -538h-131l-97 295l-97 -295h-131l-162 538h173l67 -279l93 279h114l93 -279l67 279h173zM344 609h-134v145h134v-145zM570 609h-134v145h134v-145z" />
    <glyph glyph-name="uni1E8A" unicode="&#x1e8a;" horiz-adv-x="634" 
d="M634 0h-200l-117 219l-117 -219h-200l222 365l-208 347h199l104 -201l104 201h199l-208 -347zM387 785h-138v138h138v-138z" />
    <glyph glyph-name="uni1E8B" unicode="&#x1e8b;" 
d="M556 0h-197l-82 136l-80 -136h-197l187 275l-180 263h197l73 -130l75 130h197l-180 -263zM346 613h-138v138h138v-138z" />
    <glyph glyph-name="Ygrave" unicode="&#x1ef2;" horiz-adv-x="605" 
d="M605 712l-215 -422v-290h-175v290l-215 422h191l112 -256l111 256h191zM377 782h-117l-101 180h153z" />
    <glyph glyph-name="ygrave" unicode="&#x1ef3;" horiz-adv-x="514" 
d="M522 538l-223 -602c-11 -31 -25 -54 -42 -71c-32 -34 -73 -45 -121 -45h-62v148h35c29 0 44 7 55 40l15 45l-179 485h172l91 -279l87 279h172zM321 610h-117l-101 180h153z" />
    <glyph glyph-name="uni2007" unicode="&#x2007;" 
 />
    <glyph glyph-name="uni2008" unicode="&#x2008;" horiz-adv-x="294" 
 />
    <glyph glyph-name="uni200B" unicode="&#x200b;" horiz-adv-x="0" 
 />
    <glyph glyph-name="uniFEFF" unicode="&#xfeff;" horiz-adv-x="0" 
 />
    <glyph glyph-name="endash" unicode="&#x2013;" 
d="M507 218h-458v154h458v-154z" />
    <glyph glyph-name="emdash" unicode="&#x2014;" horiz-adv-x="1093" 
d="M1044 220h-995v158h995v-158z" />
    <glyph glyph-name="afii00208" unicode="&#x2015;" horiz-adv-x="1093" 
d="M1044 220h-995v158h995v-158z" />
    <glyph glyph-name="quoteleft" unicode="&#x2018;" horiz-adv-x="278" 
d="M221 566h-164v146l164 120v-266z" />
    <glyph glyph-name="quoteright" unicode="&#x2019;" horiz-adv-x="278" 
d="M221 565l-164 -118v265h164v-147z" />
    <glyph glyph-name="quotesinglbase" unicode="&#x201a;" horiz-adv-x="276" 
d="M221 0l-164 -118v265h164v-147z" />
    <glyph glyph-name="quotedblleft" unicode="&#x201c;" horiz-adv-x="511" 
d="M454 566h-164v146l164 120v-266zM220 566h-163v146l163 120v-266z" />
    <glyph glyph-name="quotedblright" unicode="&#x201d;" horiz-adv-x="511" 
d="M454 565l-164 -118v265h164v-147zM220 565l-163 -118v265h163v-147z" />
    <glyph glyph-name="quotedblbase" unicode="&#x201e;" horiz-adv-x="514" 
d="M454 0l-164 -118v265h164v-147zM220 0l-163 -118v265h163v-147z" />
    <glyph glyph-name="dagger" unicode="&#x2020;" horiz-adv-x="564" 
d="M517 390h-153v-390h-164v390h-153v148h153v174h164v-174h153v-148z" />
    <glyph glyph-name="daggerdbl" unicode="&#x2021;" horiz-adv-x="564" 
d="M517 0h-153v-174h-164v174h-153v148h153v242h-153v148h153v174h164v-174h153v-148h-153v-242h153v-148z" />
    <glyph glyph-name="bullet" unicode="&#x2022;" horiz-adv-x="470" 
d="M398 334c0 -90 -73 -163 -163 -163s-163 73 -163 163s73 163 163 163s163 -73 163 -163z" />
    <glyph glyph-name="ellipsis" unicode="&#x2026;" horiz-adv-x="899" 
d="M842 0h-170v170h170v-170zM227 0h-170v170h170v-170zM534 0h-170v170h170v-170z" />
    <glyph glyph-name="perthousand" unicode="&#x2030;" horiz-adv-x="1229" 
d="M1184 133c0 -95 -72 -139 -151 -139s-151 44 -151 139v95c0 95 72 139 151 139s151 -44 151 -139v-95zM812 133c0 -95 -72 -139 -151 -139s-151 44 -151 139v95c0 95 72 139 151 139s151 -44 151 -139v-95zM347 484c0 -95 -72 -139 -151 -139s-151 44 -151 139v95
c0 95 72 139 151 139s151 -44 151 -139v-95zM661 712l-339 -712h-126l339 712h126zM231 488v87c0 29 -15 39 -35 39s-35 -10 -35 -39v-87c0 -29 15 -39 35 -39s35 10 35 39zM1068 137v87c0 29 -15 39 -35 39s-35 -10 -35 -39v-87c0 -29 15 -39 35 -39s35 10 35 39zM696 137
v87c0 29 -15 39 -35 39s-35 -10 -35 -39v-87c0 -29 15 -39 35 -39s35 10 35 39z" />
    <glyph glyph-name="guilsinglleft" unicode="&#x2039;" horiz-adv-x="363" 
d="M303 9l-273 271l273 270v-193l-79 -77l79 -78v-193z" />
    <glyph glyph-name="guilsinglright" unicode="&#x203a;" horiz-adv-x="363" 
d="M333 280l-273 -271v193l80 78l-80 77v193z" />
    <glyph glyph-name="fraction" unicode="&#x2044;" horiz-adv-x="221" 
d="M343 712l-339 -712h-126l339 712h126z" />
    <glyph glyph-name="uni2070" unicode="&#x2070;" horiz-adv-x="340" 
d="M314 420c0 -94 -72 -139 -144 -139s-144 45 -144 139v158c0 93 72 138 144 138s144 -45 144 -138v-158zM198 417v162c0 24 -15 33 -28 33s-28 -9 -28 -33v-162c0 -24 15 -32 28 -32s28 8 28 32z" />
    <glyph glyph-name="uni2074" unicode="&#x2074;" horiz-adv-x="340" 
d="M332 340h-26v-55h-114v55h-179v104l138 268h127l-141 -268h55v41h114v-41h26v-104z" />
    <glyph glyph-name="uni2075" unicode="&#x2075;" horiz-adv-x="340" 
d="M317 431c0 -54 -8 -79 -40 -111c-20 -20 -53 -39 -105 -39s-86 19 -106 39c-33 33 -36 61 -40 103h116c1 -23 11 -38 30 -38c9 0 16 3 21 9c4 5 8 18 8 37c0 41 -14 47 -30 47c-21 0 -28 -14 -31 -26h-107v260h275v-104h-169v-47c13 8 29 13 51 13c39 0 68 -13 86 -31
c36 -36 41 -71 41 -112z" />
    <glyph glyph-name="uni2076" unicode="&#x2076;" horiz-adv-x="340" 
d="M317 422c0 -96 -72 -141 -150 -141s-149 46 -149 142c0 32 9 62 40 124l80 165h128l-81 -159c6 1 11 1 17 1c48 0 115 -43 115 -132zM201 423c0 29 -17 39 -34 39s-33 -12 -33 -39s16 -40 33 -40c18 0 34 13 34 40z" />
    <glyph glyph-name="uni2077" unicode="&#x2077;" horiz-adv-x="340" 
d="M323 608l-129 -323h-116l128 323h-90v-68h-104v172h311v-104z" />
    <glyph glyph-name="uni2078" unicode="&#x2078;" horiz-adv-x="340" 
d="M319 416c0 -94 -68 -135 -149 -135s-149 41 -149 135c0 45 24 71 43 88c-15 15 -40 39 -40 81c0 86 71 131 146 131s146 -45 146 -131c0 -42 -25 -66 -40 -81c19 -17 43 -43 43 -88zM203 419c0 19 -14 33 -33 33s-33 -14 -33 -33s14 -33 33 -33s33 14 33 33zM200 582
c0 17 -13 30 -30 30s-30 -13 -30 -30s13 -30 30 -30s30 13 30 30z" />
    <glyph glyph-name="uni2079" unicode="&#x2079;" horiz-adv-x="340" 
d="M322 574c0 -40 -14 -71 -40 -124l-80 -165h-128l81 160c-5 -2 -11 -2 -17 -2c-47 0 -115 43 -115 132c0 96 72 141 150 141s149 -46 149 -142zM206 575c0 24 -16 37 -33 37s-34 -13 -34 -37s17 -38 34 -38s33 14 33 38z" />
    <glyph glyph-name="uni2080" unicode="&#x2080;" horiz-adv-x="340" 
d="M314 -15c0 -94 -72 -139 -144 -139s-144 45 -144 139v158c0 93 72 138 144 138s144 -45 144 -138v-158zM198 -18v162c0 24 -15 33 -28 33s-28 -9 -28 -33v-162c0 -24 15 -32 28 -32s28 8 28 32z" />
    <glyph glyph-name="uni2081" unicode="&#x2081;" horiz-adv-x="340" 
d="M258 -150h-116v297l-95 -82v130l95 82h116v-427z" />
    <glyph glyph-name="uni2082" unicode="&#x2082;" horiz-adv-x="340" 
d="M316 -150h-287v104l151 154c16 16 22 24 22 40c0 17 -11 29 -29 29c-11 0 -28 -4 -28 -30h-116c0 89 68 134 144 134c82 0 143 -49 143 -133c0 -48 -21 -74 -59 -111l-87 -83h146v-104z" />
    <glyph glyph-name="uni2083" unicode="&#x2083;" horiz-adv-x="340" 
d="M320 -19c0 -93 -71 -135 -148 -135c-72 0 -147 37 -147 140h115c0 -23 13 -36 32 -36c20 0 32 12 32 35c0 18 -15 34 -33 34h-16v99h16c22 0 30 19 30 29c0 20 -14 30 -28 30s-28 -9 -28 -31h-116c0 84 66 135 144 135c82 0 143 -55 143 -130c0 -48 -23 -67 -40 -80
c17 -16 44 -40 44 -90z" />
    <glyph glyph-name="uni2084" unicode="&#x2084;" horiz-adv-x="340" 
d="M332 -95h-26v-55h-114v55h-179v104l138 268h127l-141 -268h55v41h114v-41h26v-104z" />
    <glyph glyph-name="uni2085" unicode="&#x2085;" horiz-adv-x="340" 
d="M317 -4c0 -54 -8 -79 -40 -111c-20 -20 -53 -39 -105 -39s-86 19 -106 39c-33 33 -36 61 -40 103h116c1 -23 11 -38 30 -38c9 0 16 3 21 9c4 5 8 18 8 37c0 41 -14 47 -30 47c-21 0 -28 -14 -31 -26h-107v260h275v-104h-169v-47c13 8 29 13 51 13c39 0 68 -13 86 -31
c36 -36 41 -71 41 -112z" />
    <glyph glyph-name="uni2086" unicode="&#x2086;" horiz-adv-x="340" 
d="M317 -13c0 -96 -72 -141 -150 -141s-149 46 -149 142c0 32 9 62 40 124l80 165h128l-81 -159c6 1 11 1 17 1c48 0 115 -43 115 -132zM201 -12c0 29 -17 39 -34 39s-33 -12 -33 -39s16 -40 33 -40c18 0 34 13 34 40z" />
    <glyph glyph-name="uni2087" unicode="&#x2087;" horiz-adv-x="340" 
d="M323 173l-129 -323h-116l128 323h-90v-68h-104v172h311v-104z" />
    <glyph glyph-name="uni2088" unicode="&#x2088;" horiz-adv-x="340" 
d="M319 -19c0 -94 -68 -135 -149 -135s-149 41 -149 135c0 45 24 71 43 88c-15 15 -40 39 -40 81c0 86 71 131 146 131s146 -45 146 -131c0 -42 -25 -66 -40 -81c19 -17 43 -43 43 -88zM203 -16c0 19 -14 33 -33 33s-33 -14 -33 -33s14 -33 33 -33s33 14 33 33zM200 147
c0 17 -13 30 -30 30s-30 -13 -30 -30s13 -30 30 -30s30 13 30 30z" />
    <glyph glyph-name="uni2089" unicode="&#x2089;" horiz-adv-x="340" 
d="M322 139c0 -40 -14 -71 -40 -124l-80 -165h-128l81 160c-5 -2 -11 -2 -17 -2c-47 0 -115 43 -115 132c0 96 72 141 150 141s149 -46 149 -142zM206 140c0 24 -16 37 -33 37s-34 -13 -34 -37s17 -38 34 -38s33 14 33 38z" />
    <glyph glyph-name="Euro" unicode="&#x20ac;" horiz-adv-x="688" 
d="M646 226c-26 -157 -135 -232 -270 -232c-83 0 -146 28 -198 80c-43 43 -60 94 -67 150h-76v102h71v62h-71v102h76c7 55 25 106 67 148c52 52 115 80 198 80c135 0 244 -75 270 -232h-178c-11 40 -33 76 -91 76c-32 0 -56 -13 -69 -30c-7 -10 -14 -20 -18 -42h107v-102
h-116v-62h116v-102h-108c5 -23 11 -34 19 -44c13 -17 37 -30 69 -30c58 0 80 36 91 76h178z" />
    <glyph glyph-name="uni20B4" unicode="&#x20b4;" horiz-adv-x="692" 
d="M599 456h58v-82h-86c-6 -9 -12 -17 -19 -24l-6 -6h111v-82h-374c-15 -10 -21 -28 -21 -48c0 -41 33 -64 102 -64c57 0 122 13 159 50l112 -112c-72 -74 -161 -94 -270 -94c-150 0 -275 79 -275 224c0 15 1 30 3 44h-58v82h84c6 11 14 21 24 30h-108v82h370c5 3 9 6 13 10
c11 11 14 24 14 33c0 31 -25 66 -86 66c-44 0 -92 0 -135 -42l-110 110c61 61 138 85 240 85c162 0 260 -95 260 -225c0 -13 -1 -26 -2 -37z" />
    <glyph glyph-name="afii61352" unicode="&#x2116;" horiz-adv-x="975" 
d="M576 0h-142l-208 388v-388h-164v712h142l208 -388v388h164v-712zM931 195h-302v118h302v-118zM814 536c0 37 -1 63 -13 75c-4 4 -10 7 -21 7s-17 -3 -21 -7c-12 -12 -13 -38 -13 -75s1 -62 13 -74c4 -4 10 -8 21 -8s17 4 21 8c12 12 13 37 13 74zM938 531
c0 -73 -13 -111 -41 -140c-22 -23 -65 -47 -117 -47s-95 24 -117 47c-27 29 -41 69 -41 140c0 72 12 109 41 140c22 23 65 47 117 47s95 -24 117 -47c27 -29 41 -70 41 -140z" />
    <glyph glyph-name="trademark" unicode="&#x2122;" horiz-adv-x="973" 
d="M906 285h-117v219l-67 -131h-100l-67 131v-219h-117v427h117l117 -210l117 210h117v-427zM377 608h-105v-323h-116v323h-105v104h326v-104z" />
    <glyph glyph-name="Omega" unicode="&#x2126;" horiz-adv-x="640" 
d="M591 356c0 -56 -5 -107 -20 -152c-5 -16 -13 -33 -25 -48h45v-156h-233v136c14 7 25 16 32 25c16 21 26 55 26 185s-10 162 -26 183c-13 17 -38 33 -70 33s-57 -16 -70 -33c-16 -21 -26 -53 -26 -183s10 -164 26 -185c7 -9 18 -18 32 -25v-136h-233v156h45
c-12 15 -20 32 -25 48c-15 45 -20 96 -20 152c0 120 0 211 73 284c51 51 111 78 198 78s147 -27 198 -78c73 -73 73 -164 73 -284z" />
    <glyph glyph-name="uni2150" unicode="&#x2150;" horiz-adv-x="901" 
d="M258 285h-116v297l-95 -82v130l95 82h116v-427zM683 712l-339 -712h-126l339 712h126zM884 323l-129 -323h-116l128 323h-90v-68h-104v172h311v-104z" />
    <glyph glyph-name="uni2151" unicode="&#x2151;" horiz-adv-x="901" 
d="M258 285h-116v297l-95 -82v130l95 82h116v-427zM683 712l-339 -712h-126l339 712h126zM883 289c0 -40 -14 -71 -40 -124l-80 -165h-128l81 160c-5 -2 -11 -2 -17 -2c-47 0 -115 43 -115 132c0 96 72 141 150 141s149 -46 149 -142zM767 290c0 24 -16 37 -33 37
s-34 -13 -34 -37s17 -38 34 -38s33 14 33 38z" />
    <glyph glyph-name="uni2152" unicode="&#x2152;" horiz-adv-x="1241" 
d="M258 285h-116v297l-95 -82v130l95 82h116v-427zM683 712l-339 -712h-126l339 712h126zM819 0h-116v297l-95 -82v130l95 82h116v-427zM1215 135c0 -94 -72 -139 -144 -139s-144 45 -144 139v158c0 93 72 138 144 138s144 -45 144 -138v-158zM1099 132v162
c0 24 -15 33 -28 33s-28 -9 -28 -33v-162c0 -24 15 -32 28 -32s28 8 28 32z" />
    <glyph glyph-name="onethird" unicode="&#x2153;" horiz-adv-x="901" 
d="M258 285h-116v297l-95 -82v130l95 82h116v-427zM683 712l-339 -712h-126l339 712h126zM881 131c0 -93 -71 -135 -148 -135c-72 0 -147 37 -147 140h115c0 -23 13 -36 32 -36c20 0 32 12 32 35c0 18 -15 34 -33 34h-16v99h16c22 0 30 19 30 29c0 20 -14 30 -28 30
s-28 -9 -28 -31h-116c0 84 66 135 144 135c82 0 143 -55 143 -130c0 -48 -23 -67 -40 -80c17 -16 44 -40 44 -90z" />
    <glyph glyph-name="twothirds" unicode="&#x2154;" horiz-adv-x="901" 
d="M316 285h-287v104l151 154c16 16 22 24 22 40c0 17 -11 29 -29 29c-11 0 -28 -4 -28 -30h-116c0 89 68 134 144 134c82 0 143 -49 143 -133c0 -48 -21 -74 -59 -111l-87 -83h146v-104zM683 712l-339 -712h-126l339 712h126zM881 131c0 -93 -71 -135 -148 -135
c-72 0 -147 37 -147 140h115c0 -23 13 -36 32 -36c20 0 32 12 32 35c0 18 -15 34 -33 34h-16v99h16c22 0 30 19 30 29c0 20 -14 30 -28 30s-28 -9 -28 -31h-116c0 84 66 135 144 135c82 0 143 -55 143 -130c0 -48 -23 -67 -40 -80c17 -16 44 -40 44 -90z" />
    <glyph glyph-name="uni2155" unicode="&#x2155;" horiz-adv-x="901" 
d="M258 285h-116v297l-95 -82v130l95 82h116v-427zM683 712l-339 -712h-126l339 712h126zM878 146c0 -54 -8 -79 -40 -111c-20 -20 -53 -39 -105 -39s-86 19 -106 39c-33 33 -36 61 -40 103h116c1 -23 11 -38 30 -38c9 0 16 3 21 9c4 5 8 18 8 37c0 41 -14 47 -30 47
c-21 0 -28 -14 -31 -26h-107v260h275v-104h-169v-47c13 8 29 13 51 13c39 0 68 -13 86 -31c36 -36 41 -71 41 -112z" />
    <glyph glyph-name="uni2156" unicode="&#x2156;" horiz-adv-x="901" 
d="M316 285h-287v104l151 154c16 16 22 24 22 40c0 17 -11 29 -29 29c-11 0 -28 -4 -28 -30h-116c0 89 68 134 144 134c82 0 143 -49 143 -133c0 -48 -21 -74 -59 -111l-87 -83h146v-104zM683 712l-339 -712h-126l339 712h126zM878 146c0 -54 -8 -79 -40 -111
c-20 -20 -53 -39 -105 -39s-86 19 -106 39c-33 33 -36 61 -40 103h116c1 -23 11 -38 30 -38c9 0 16 3 21 9c4 5 8 18 8 37c0 41 -14 47 -30 47c-21 0 -28 -14 -31 -26h-107v260h275v-104h-169v-47c13 8 29 13 51 13c39 0 68 -13 86 -31c36 -36 41 -71 41 -112z" />
    <glyph glyph-name="uni2157" unicode="&#x2157;" horiz-adv-x="901" 
d="M320 416c0 -93 -71 -135 -148 -135c-72 0 -147 37 -147 140h115c0 -23 13 -36 32 -36c20 0 32 12 32 35c0 18 -15 34 -33 34h-16v99h16c22 0 30 19 30 29c0 20 -14 30 -28 30s-28 -9 -28 -31h-116c0 84 66 135 144 135c82 0 143 -55 143 -130c0 -48 -23 -67 -40 -80
c17 -16 44 -40 44 -90zM683 712l-339 -712h-126l339 712h126zM878 146c0 -54 -8 -79 -40 -111c-20 -20 -53 -39 -105 -39s-86 19 -106 39c-33 33 -36 61 -40 103h116c1 -23 11 -38 30 -38c9 0 16 3 21 9c4 5 8 18 8 37c0 41 -14 47 -30 47c-21 0 -28 -14 -31 -26h-107v260
h275v-104h-169v-47c13 8 29 13 51 13c39 0 68 -13 86 -31c36 -36 41 -71 41 -112z" />
    <glyph glyph-name="uni2158" unicode="&#x2158;" horiz-adv-x="901" 
d="M332 340h-26v-55h-114v55h-179v104l138 268h127l-141 -268h55v41h114v-41h26v-104zM683 712l-339 -712h-126l339 712h126zM878 146c0 -54 -8 -79 -40 -111c-20 -20 -53 -39 -105 -39s-86 19 -106 39c-33 33 -36 61 -40 103h116c1 -23 11 -38 30 -38c9 0 16 3 21 9
c4 5 8 18 8 37c0 41 -14 47 -30 47c-21 0 -28 -14 -31 -26h-107v260h275v-104h-169v-47c13 8 29 13 51 13c39 0 68 -13 86 -31c36 -36 41 -71 41 -112z" />
    <glyph glyph-name="uni2159" unicode="&#x2159;" horiz-adv-x="901" 
d="M258 285h-116v297l-95 -82v130l95 82h116v-427zM683 712l-339 -712h-126l339 712h126zM878 137c0 -96 -72 -141 -150 -141s-149 46 -149 142c0 32 9 62 40 124l80 165h128l-81 -159c6 1 11 1 17 1c48 0 115 -43 115 -132zM762 138c0 29 -17 39 -34 39s-33 -12 -33 -39
s16 -40 33 -40c18 0 34 13 34 40z" />
    <glyph glyph-name="uni215A" unicode="&#x215a;" horiz-adv-x="901" 
d="M317 431c0 -54 -8 -79 -40 -111c-20 -20 -53 -39 -105 -39s-86 19 -106 39c-33 33 -36 61 -40 103h116c1 -23 11 -38 30 -38c9 0 16 3 21 9c4 5 8 18 8 37c0 41 -14 47 -30 47c-21 0 -28 -14 -31 -26h-107v260h275v-104h-169v-47c13 8 29 13 51 13c39 0 68 -13 86 -31
c36 -36 41 -71 41 -112zM683 712l-339 -712h-126l339 712h126zM878 137c0 -96 -72 -141 -150 -141s-149 46 -149 142c0 32 9 62 40 124l80 165h128l-81 -159c6 1 11 1 17 1c48 0 115 -43 115 -132zM762 138c0 29 -17 39 -34 39s-33 -12 -33 -39s16 -40 33 -40
c18 0 34 13 34 40z" />
    <glyph glyph-name="oneeighth" unicode="&#x215b;" horiz-adv-x="901" 
d="M258 285h-116v297l-95 -82v130l95 82h116v-427zM683 712l-339 -712h-126l339 712h126zM880 131c0 -94 -68 -135 -149 -135s-149 41 -149 135c0 45 24 71 43 88c-15 15 -40 39 -40 81c0 86 71 131 146 131s146 -45 146 -131c0 -42 -25 -66 -40 -81c19 -17 43 -43 43 -88z
M764 134c0 19 -14 33 -33 33s-33 -14 -33 -33s14 -33 33 -33s33 14 33 33zM761 297c0 17 -13 30 -30 30s-30 -13 -30 -30s13 -30 30 -30s30 13 30 30z" />
    <glyph glyph-name="threeeighths" unicode="&#x215c;" horiz-adv-x="901" 
d="M320 416c0 -93 -71 -135 -148 -135c-72 0 -147 37 -147 140h115c0 -23 13 -36 32 -36c20 0 32 12 32 35c0 18 -15 34 -33 34h-16v99h16c22 0 30 19 30 29c0 20 -14 30 -28 30s-28 -9 -28 -31h-116c0 84 66 135 144 135c82 0 143 -55 143 -130c0 -48 -23 -67 -40 -80
c17 -16 44 -40 44 -90zM683 712l-339 -712h-126l339 712h126zM880 131c0 -94 -68 -135 -149 -135s-149 41 -149 135c0 45 24 71 43 88c-15 15 -40 39 -40 81c0 86 71 131 146 131s146 -45 146 -131c0 -42 -25 -66 -40 -81c19 -17 43 -43 43 -88zM764 134c0 19 -14 33 -33 33
s-33 -14 -33 -33s14 -33 33 -33s33 14 33 33zM761 297c0 17 -13 30 -30 30s-30 -13 -30 -30s13 -30 30 -30s30 13 30 30z" />
    <glyph glyph-name="fiveeighths" unicode="&#x215d;" horiz-adv-x="901" 
d="M317 431c0 -54 -8 -79 -40 -111c-20 -20 -53 -39 -105 -39s-86 19 -106 39c-33 33 -36 61 -40 103h116c1 -23 11 -38 30 -38c9 0 16 3 21 9c4 5 8 18 8 37c0 41 -14 47 -30 47c-21 0 -28 -14 -31 -26h-107v260h275v-104h-169v-47c13 8 29 13 51 13c39 0 68 -13 86 -31
c36 -36 41 -71 41 -112zM683 712l-339 -712h-126l339 712h126zM880 131c0 -94 -68 -135 -149 -135s-149 41 -149 135c0 45 24 71 43 88c-15 15 -40 39 -40 81c0 86 71 131 146 131s146 -45 146 -131c0 -42 -25 -66 -40 -81c19 -17 43 -43 43 -88zM764 134
c0 19 -14 33 -33 33s-33 -14 -33 -33s14 -33 33 -33s33 14 33 33zM761 297c0 17 -13 30 -30 30s-30 -13 -30 -30s13 -30 30 -30s30 13 30 30z" />
    <glyph glyph-name="seveneighths" unicode="&#x215e;" horiz-adv-x="901" 
d="M323 608l-129 -323h-116l128 323h-90v-68h-104v172h311v-104zM683 712l-339 -712h-126l339 712h126zM880 131c0 -94 -68 -135 -149 -135s-149 41 -149 135c0 45 24 71 43 88c-15 15 -40 39 -40 81c0 86 71 131 146 131s146 -45 146 -131c0 -42 -25 -66 -40 -81
c19 -17 43 -43 43 -88zM764 134c0 19 -14 33 -33 33s-33 -14 -33 -33s14 -33 33 -33s33 14 33 33zM761 297c0 17 -13 30 -30 30s-30 -13 -30 -30s13 -30 30 -30s30 13 30 30z" />
    <glyph glyph-name="uni215F" unicode="&#x215f;" horiz-adv-x="561" 
d="M258 285h-116v297l-95 -82v130l95 82h116v-427zM683 712l-339 -712h-126l339 712h126z" />
    <glyph glyph-name="uni2189" unicode="&#x2189;" horiz-adv-x="901" 
d="M314 420c0 -94 -72 -139 -144 -139s-144 45 -144 139v158c0 93 72 138 144 138s144 -45 144 -138v-158zM198 417v162c0 24 -15 33 -28 33s-28 -9 -28 -33v-162c0 -24 15 -32 28 -32s28 8 28 32zM683 712l-339 -712h-126l339 712h126zM881 131c0 -93 -71 -135 -148 -135
c-72 0 -147 37 -147 140h115c0 -23 13 -36 32 -36c20 0 32 12 32 35c0 18 -15 34 -33 34h-16v99h16c22 0 30 19 30 29c0 20 -14 30 -28 30s-28 -9 -28 -31h-116c0 84 66 135 144 135c82 0 143 -55 143 -130c0 -48 -23 -67 -40 -80c17 -16 44 -40 44 -90z" />
    <glyph glyph-name="arrowleft" unicode="&#x2190;" horiz-adv-x="1027" 
d="M424 -82l-377 377l377 377h205l-304 -300h654v-154h-654l304 -300h-205z" />
    <glyph glyph-name="arrowup" unicode="&#x2191;" horiz-adv-x="1027" 
d="M891 180l-300 304v-655h-154v655l-300 -304v205l377 377l377 -377v-205z" />
    <glyph glyph-name="arrowright" unicode="&#x2192;" horiz-adv-x="1027" 
d="M399 -82l304 300h-655v154h655l-304 300h205l377 -377l-377 -377h-205z" />
    <glyph glyph-name="arrowdown" unicode="&#x2193;" horiz-adv-x="1027" 
d="M890 206l-377 -377l-377 377v205l300 -304v654h154v-654l300 304v-205z" />
    <glyph glyph-name="uni2196" unicode="&#x2196;" horiz-adv-x="1027" 
d="M897 20l-109 -109l-462 462l2 -427l-145 145v534h534l145 -145l-427 2z" />
    <glyph glyph-name="uni2197" unicode="&#x2197;" horiz-adv-x="1027" 
d="M843 92l-145 -145l3 427l-463 -463l-109 109l463 463l-427 -3l145 145h533v-533z" />
    <glyph glyph-name="uni2198" unicode="&#x2198;" horiz-adv-x="1027" 
d="M854 -62h-533l-145 145l427 -3l-463 463l109 109l463 -463l-3 427l145 -145v-533z" />
    <glyph glyph-name="uni2199" unicode="&#x2199;" horiz-adv-x="1027" 
d="M886 544l-463 -463l428 2l-145 -145h-535v535l145 145l-2 -428l463 463z" />
    <glyph glyph-name="partialdiff" unicode="&#x2202;" horiz-adv-x="561" 
d="M499 259c0 -102 -13 -152 -57 -199c-31 -33 -83 -66 -167 -66s-136 33 -167 66c-44 47 -57 97 -57 199c0 101 13 153 57 200c31 33 79 65 163 65c21 0 45 -3 63 -12c0 11 -14 68 -86 68c-37 0 -67 -9 -92 -34l-102 102c55 55 118 70 202 70c165 0 243 -105 243 -249v-210
zM335 259c0 49 -2 84 -21 103c-9 9 -21 14 -39 14s-30 -5 -39 -14c-19 -19 -21 -54 -21 -103s2 -84 21 -103c9 -9 21 -14 39 -14s30 5 39 14c19 19 21 54 21 103z" />
    <glyph glyph-name="Delta" unicode="&#x2206;" horiz-adv-x="653" 
d="M653 0h-653l259 712h135zM424 146l-93 296l-99 -296h192z" />
    <glyph glyph-name="product" unicode="&#x220f;" horiz-adv-x="680" 
d="M608 -174h-175v779h-186v-779h-175v934h536v-934z" />
    <glyph glyph-name="summation" unicode="&#x2211;" horiz-adv-x="553" 
d="M523 -176h-493v136l181 342l-177 322v136h484v-156h-278l118 -224v-163l-126 -237h291v-156z" />
    <glyph glyph-name="minus" unicode="&#x2212;" 
d="M507 218h-458v154h458v-154z" />
    <glyph glyph-name="uni2219" unicode="&#x2219;" 
d="M441 334c0 -90 -73 -163 -163 -163s-163 73 -163 163s73 163 163 163s163 -73 163 -163z" />
    <glyph glyph-name="radical" unicode="&#x221a;" horiz-adv-x="616" 
d="M586 556h-94l-184 -556h-130l-178 538h177l67 -224l118 398h224v-156z" />
    <glyph glyph-name="infinity" unicode="&#x221e;" horiz-adv-x="876" 
d="M829 295c0 -114 -68 -206 -209 -206c-72 0 -136 38 -182 88c-46 -50 -110 -88 -182 -88c-141 0 -209 92 -209 206s68 206 209 206c72 0 136 -38 182 -88c46 50 110 88 182 88c141 0 209 -92 209 -206zM324 290c-20 24 -41 49 -69 49c-24 0 -48 -16 -48 -49s24 -49 48 -49
c28 0 49 25 69 49zM669 290c0 33 -24 49 -48 49c-28 0 -49 -25 -69 -49c20 -24 41 -49 69 -49c24 0 48 16 48 49z" />
    <glyph glyph-name="integral" unicode="&#x222b;" horiz-adv-x="560" 
d="M490 592h-55c-42 0 -69 -19 -69 -66v-488c0 -136 -94 -205 -224 -205h-73v138h55c42 0 69 19 69 66v488c0 136 94 205 224 205h73v-138z" />
    <glyph glyph-name="approxequal" unicode="&#x2248;" horiz-adv-x="646" 
d="M616 408c-65 -65 -116 -96 -187 -96c-45 0 -77 7 -123 34c-29 17 -54 25 -84 25c-27 0 -52 -5 -88 -41l-104 104c65 65 114 96 185 96c45 0 77 -7 123 -34c29 -17 54 -25 84 -25c27 0 52 5 88 41zM616 154c-65 -65 -114 -96 -185 -96c-45 0 -77 7 -123 34
c-29 17 -54 25 -84 25c-27 0 -52 -5 -88 -41l-106 104c65 65 116 96 187 96c45 0 77 -7 123 -34c29 -17 54 -25 84 -25c27 0 52 5 88 41z" />
    <glyph glyph-name="notequal" unicode="&#x2260;" horiz-adv-x="640" 
d="M591 96h-340l-103 -140l-99 74l48 66h-48v154h161l66 90h-227v154h340l103 140l99 -74l-48 -66h48v-154h-161l-66 -90h227v-154z" />
    <glyph glyph-name="lessequal" unicode="&#x2264;" 
d="M503 199l-450 198v142l450 198v-173l-235 -96l235 -96v-173zM503 -58l-450 198v173l450 -198v-173z" />
    <glyph glyph-name="greaterequal" unicode="&#x2265;" 
d="M503 397l-450 -198v173l235 96l-235 96v173l450 -198v-142zM503 140l-450 -198v173l450 198v-173z" />
    <glyph glyph-name="dotmath" unicode="&#x22c5;" 
d="M368 205h-180v180h180v-180z" />
    <glyph glyph-name="lozenge" unicode="&#x25ca;" horiz-adv-x="628" 
d="M581 334l-267 -368l-267 368l267 368zM396 334l-82 112l-82 -112l82 -112z" />
    <glyph glyph-name="fi" unicode="&#xfb01;" horiz-adv-x="631" 
d="M333 391h-90v-391h-164v391h-49v126h49v47c0 74 48 159 167 159h87v-138h-57c-22 0 -33 -12 -33 -33v-35h90v-126zM569 0h-164v517h164v-517zM569 593h-164v125h164v-125z" />
    <glyph glyph-name="fl" unicode="&#xfb02;" horiz-adv-x="689" 
d="M333 391h-90v-391h-164v391h-49v126h49v47c0 74 48 159 167 159h87v-138h-57c-22 0 -33 -12 -33 -33v-35h90v-126zM659 0h-87c-119 0 -167 85 -167 159v553h164v-541c0 -21 11 -33 33 -33h57v-138z" />
    <glyph glyph-name="i.latn_TRK" horiz-adv-x="288" 
d="M226 0h-164v517h164v-517zM226 593h-164v125h164v-125z" />
    <glyph glyph-name="Ldot.latn_CAT" horiz-adv-x="576" 
d="M546 0h-474v712h175v-556h299v-156zM512 289h-138v138h138v-138z" />
    <glyph glyph-name="ldot.latn_CAT" horiz-adv-x="463" 
d="M311 0h-87c-119 0 -167 85 -167 159v553h164v-541c0 -21 11 -33 33 -33h57v-138zM440 224h-138v138h138v-138z" />
    <glyph glyph-name="zero.numr" horiz-adv-x="340" 
d="M314 420c0 -94 -72 -139 -144 -139s-144 45 -144 139v158c0 93 72 138 144 138s144 -45 144 -138v-158zM198 417v162c0 24 -15 33 -28 33s-28 -9 -28 -33v-162c0 -24 15 -32 28 -32s28 8 28 32z" />
    <glyph glyph-name="one.numr" horiz-adv-x="340" 
d="M258 285h-116v297l-95 -82v130l95 82h116v-427z" />
    <glyph glyph-name="two.numr" horiz-adv-x="340" 
d="M316 285h-287v104l151 154c16 16 22 24 22 40c0 17 -11 29 -29 29c-11 0 -28 -4 -28 -30h-116c0 89 68 134 144 134c82 0 143 -49 143 -133c0 -48 -21 -74 -59 -111l-87 -83h146v-104z" />
    <glyph glyph-name="three.numr" horiz-adv-x="340" 
d="M320 416c0 -93 -71 -135 -148 -135c-72 0 -147 37 -147 140h115c0 -23 13 -36 32 -36c20 0 32 12 32 35c0 18 -15 34 -33 34h-16v99h16c22 0 30 19 30 29c0 20 -14 30 -28 30s-28 -9 -28 -31h-116c0 84 66 135 144 135c82 0 143 -55 143 -130c0 -48 -23 -67 -40 -80
c17 -16 44 -40 44 -90z" />
    <glyph glyph-name="four.numr" horiz-adv-x="340" 
d="M332 340h-26v-55h-114v55h-179v104l138 268h127l-141 -268h55v41h114v-41h26v-104z" />
    <glyph glyph-name="five.numr" horiz-adv-x="340" 
d="M317 431c0 -54 -8 -79 -40 -111c-20 -20 -53 -39 -105 -39s-86 19 -106 39c-33 33 -36 61 -40 103h116c1 -23 11 -38 30 -38c9 0 16 3 21 9c4 5 8 18 8 37c0 41 -14 47 -30 47c-21 0 -28 -14 -31 -26h-107v260h275v-104h-169v-47c13 8 29 13 51 13c39 0 68 -13 86 -31
c36 -36 41 -71 41 -112z" />
    <glyph glyph-name="six.numr" horiz-adv-x="340" 
d="M317 422c0 -96 -72 -141 -150 -141s-149 46 -149 142c0 32 9 62 40 124l80 165h128l-81 -159c6 1 11 1 17 1c48 0 115 -43 115 -132zM201 423c0 29 -17 39 -34 39s-33 -12 -33 -39s16 -40 33 -40c18 0 34 13 34 40z" />
    <glyph glyph-name="seven.numr" horiz-adv-x="340" 
d="M323 608l-129 -323h-116l128 323h-90v-68h-104v172h311v-104z" />
    <glyph glyph-name="eight.numr" horiz-adv-x="340" 
d="M319 416c0 -94 -68 -135 -149 -135s-149 41 -149 135c0 45 24 71 43 88c-15 15 -40 39 -40 81c0 86 71 131 146 131s146 -45 146 -131c0 -42 -25 -66 -40 -81c19 -17 43 -43 43 -88zM203 419c0 19 -14 33 -33 33s-33 -14 -33 -33s14 -33 33 -33s33 14 33 33zM200 582
c0 17 -13 30 -30 30s-30 -13 -30 -30s13 -30 30 -30s30 13 30 30z" />
    <glyph glyph-name="nine.numr" horiz-adv-x="340" 
d="M322 574c0 -40 -14 -71 -40 -124l-80 -165h-128l81 160c-5 -2 -11 -2 -17 -2c-47 0 -115 43 -115 132c0 96 72 141 150 141s149 -46 149 -142zM206 575c0 24 -16 37 -33 37s-34 -13 -34 -37s17 -38 34 -38s33 14 33 38z" />
    <glyph glyph-name="zero.dnom" horiz-adv-x="340" 
d="M314 135c0 -94 -72 -139 -144 -139s-144 45 -144 139v158c0 93 72 138 144 138s144 -45 144 -138v-158zM198 132v162c0 24 -15 33 -28 33s-28 -9 -28 -33v-162c0 -24 15 -32 28 -32s28 8 28 32z" />
    <glyph glyph-name="one.dnom" horiz-adv-x="340" 
d="M258 0h-116v297l-95 -82v130l95 82h116v-427z" />
    <glyph glyph-name="two.dnom" horiz-adv-x="340" 
d="M316 0h-287v104l151 154c16 16 22 24 22 40c0 17 -11 29 -29 29c-11 0 -28 -4 -28 -30h-116c0 89 68 134 144 134c82 0 143 -49 143 -133c0 -48 -21 -74 -59 -111l-87 -83h146v-104z" />
    <glyph glyph-name="three.dnom" horiz-adv-x="340" 
d="M320 131c0 -93 -71 -135 -148 -135c-72 0 -147 37 -147 140h115c0 -23 13 -36 32 -36c20 0 32 12 32 35c0 18 -15 34 -33 34h-16v99h16c22 0 30 19 30 29c0 20 -14 30 -28 30s-28 -9 -28 -31h-116c0 84 66 135 144 135c82 0 143 -55 143 -130c0 -48 -23 -67 -40 -80
c17 -16 44 -40 44 -90z" />
    <glyph glyph-name="four.dnom" horiz-adv-x="340" 
d="M332 55h-26v-55h-114v55h-179v104l138 268h127l-141 -268h55v41h114v-41h26v-104z" />
    <glyph glyph-name="five.dnom" horiz-adv-x="340" 
d="M317 146c0 -54 -8 -79 -40 -111c-20 -20 -53 -39 -105 -39s-86 19 -106 39c-33 33 -36 61 -40 103h116c1 -23 11 -38 30 -38c9 0 16 3 21 9c4 5 8 18 8 37c0 41 -14 47 -30 47c-21 0 -28 -14 -31 -26h-107v260h275v-104h-169v-47c13 8 29 13 51 13c39 0 68 -13 86 -31
c36 -36 41 -71 41 -112z" />
    <glyph glyph-name="six.dnom" horiz-adv-x="340" 
d="M317 137c0 -96 -72 -141 -150 -141s-149 46 -149 142c0 32 9 62 40 124l80 165h128l-81 -159c6 1 11 1 17 1c48 0 115 -43 115 -132zM201 138c0 29 -17 39 -34 39s-33 -12 -33 -39s16 -40 33 -40c18 0 34 13 34 40z" />
    <glyph glyph-name="seven.dnom" horiz-adv-x="340" 
d="M323 323l-129 -323h-116l128 323h-90v-68h-104v172h311v-104z" />
    <glyph glyph-name="eight.dnom" horiz-adv-x="340" 
d="M319 131c0 -94 -68 -135 -149 -135s-149 41 -149 135c0 45 24 71 43 88c-15 15 -40 39 -40 81c0 86 71 131 146 131s146 -45 146 -131c0 -42 -25 -66 -40 -81c19 -17 43 -43 43 -88zM203 134c0 19 -14 33 -33 33s-33 -14 -33 -33s14 -33 33 -33s33 14 33 33zM200 297
c0 17 -13 30 -30 30s-30 -13 -30 -30s13 -30 30 -30s30 13 30 30z" />
    <glyph glyph-name="nine.dnom" horiz-adv-x="340" 
d="M322 289c0 -40 -14 -71 -40 -124l-80 -165h-128l81 160c-5 -2 -11 -2 -17 -2c-47 0 -115 43 -115 132c0 96 72 141 150 141s149 -46 149 -142zM206 290c0 24 -16 37 -33 37s-34 -13 -34 -37s17 -38 34 -38s33 14 33 38z" />
    <glyph glyph-name="space.frac" horiz-adv-x="44" 
 />
    <glyph glyph-name="zero.osf" 
d="M507 216c0 -147 -111 -222 -229 -222s-229 75 -229 222v165c0 147 111 222 229 222s229 -75 229 -222v-165zM343 215v166c0 50 -30 74 -65 74s-65 -24 -65 -74v-166c0 -50 30 -73 65 -73s65 23 65 73z" />
    <glyph glyph-name="one.osf" horiz-adv-x="476" 
d="M371 0h-164v422l-152 -132v175l152 132h164v-597z" />
    <glyph glyph-name="two.osf" horiz-adv-x="573" 
d="M513 0h-468v148l221 173c46 36 73 62 73 93c0 37 -24 61 -64 61c-30 0 -66 -14 -66 -69h-164c0 140 106 217 230 217c128 0 228 -77 228 -205c0 -80 -60 -137 -147 -204l-86 -66h243v-148z" />
    <glyph glyph-name="three.osf" horiz-adv-x="546" 
d="M504 98c0 -149 -112 -219 -237 -219c-118 0 -237 63 -237 223h164c0 -50 32 -75 73 -75c43 0 73 25 73 76c0 43 -32 75 -76 75h-23v142h23c49 0 68 35 68 67c0 45 -31 68 -65 68s-65 -24 -65 -67h-164c0 134 102 215 229 215c132 0 229 -88 229 -211
c0 -78 -38 -116 -74 -139c39 -27 82 -70 82 -155z" />
    <glyph glyph-name="four.osf" horiz-adv-x="619" 
d="M579 30h-73v-153h-156v153h-309v156l231 462h177l-231 -462h132v114h156v-114h73v-156z" />
    <glyph glyph-name="five.osf" horiz-adv-x="571" 
d="M525 128c0 -86 -13 -135 -66 -188c-31 -31 -85 -61 -165 -61s-138 31 -169 62c-51 51 -58 109 -62 161h164c5 -47 25 -75 67 -75c20 0 33 5 46 18c15 15 21 41 21 83c0 79 -27 101 -67 101c-48 0 -60 -32 -67 -51h-151v419h434v-148h-285v-110c14 11 52 28 96 28
c62 0 109 -21 138 -50c58 -58 66 -122 66 -189z" />
    <glyph glyph-name="six.osf" horiz-adv-x="562" 
d="M527 227c0 -156 -114 -233 -246 -233s-246 77 -246 233c0 98 28 161 79 255l134 246h177l-165 -289c17 9 39 12 70 12c96 0 197 -73 197 -224zM363 227c0 59 -37 91 -82 91s-82 -32 -82 -91s37 -91 82 -91s82 32 82 91z" />
    <glyph glyph-name="seven.osf" horiz-adv-x="583" 
d="M548 449l-247 -564h-178l247 564h-169v-112h-156v260h503v-148z" />
    <glyph glyph-name="eight.osf" horiz-adv-x="576" 
d="M527 213c0 -148 -108 -219 -239 -219s-239 71 -239 219c0 89 53 131 80 153c-25 21 -73 64 -73 141c0 135 110 211 232 211s232 -76 232 -211c0 -77 -48 -120 -73 -141c27 -22 80 -64 80 -153zM363 217c0 41 -34 75 -75 75s-75 -34 -75 -75s34 -75 75 -75s75 34 75 75z
M356 502c0 38 -30 68 -68 68s-68 -30 -68 -68s30 -68 68 -68s68 30 68 68z" />
    <glyph glyph-name="nine.osf" horiz-adv-x="562" 
d="M527 370c0 -98 -28 -161 -79 -255l-134 -246h-177l165 289c-17 -9 -39 -12 -70 -12c-96 0 -197 73 -197 224c0 156 114 233 246 233s246 -77 246 -233zM363 370c0 59 -37 91 -82 91s-82 -32 -82 -91s37 -91 82 -91s82 32 82 91z" />
    <glyph glyph-name="zero.lf" 
d="M507 216c0 -147 -111 -222 -229 -222s-229 75 -229 222v280c0 147 111 222 229 222s229 -75 229 -222v-280zM343 215v281c0 50 -30 74 -65 74s-65 -24 -65 -74v-281c0 -50 30 -73 65 -73s65 23 65 73z" />
    <glyph glyph-name="one.lf" horiz-adv-x="466" 
d="M371 0h-164v537l-152 -132v175l152 132h164v-712z" />
    <glyph glyph-name="two.lf" horiz-adv-x="553" 
d="M503 0h-458v148l258 280c26 28 36 46 36 76c0 39 -22 66 -64 66c-30 0 -66 -14 -66 -69h-164c0 140 106 217 230 217c132 0 228 -81 228 -215c0 -75 -31 -115 -88 -175l-170 -180h258v-148z" />
    <glyph glyph-name="three.lf" horiz-adv-x="546" 
d="M504 213c0 -149 -112 -219 -237 -219c-118 0 -237 63 -237 223h164c0 -50 32 -75 73 -75c43 0 73 25 73 76c0 43 -32 75 -76 75h-23v142h23c49 0 68 35 68 67c0 45 -31 68 -65 68s-65 -24 -65 -67h-164c0 134 102 215 229 215c132 0 229 -88 229 -211
c0 -78 -38 -116 -74 -139c39 -27 82 -70 82 -155z" />
    <glyph glyph-name="four.lf" horiz-adv-x="585" 
d="M545 94h-53v-94h-156v94h-295v156l236 462h180l-236 -462h115v94h156v-94h53v-156z" />
    <glyph glyph-name="five.lf" horiz-adv-x="568" 
d="M522 243c0 -86 -13 -135 -66 -188c-31 -31 -85 -61 -165 -61s-138 31 -169 62c-51 51 -58 109 -62 161h164c5 -47 25 -75 67 -75c20 0 33 5 46 18c15 15 21 41 21 83c0 79 -27 101 -67 101c-48 0 -60 -32 -67 -51h-151v419h434v-148h-285v-110c14 11 52 28 96 28
c62 0 109 -21 138 -50c58 -58 66 -122 66 -189z" />
    <glyph glyph-name="six.lf" horiz-adv-x="544" 
d="M509 223c0 -151 -109 -229 -237 -229s-237 78 -237 229c0 68 27 123 68 207l137 282h180l-141 -279c14 5 29 5 40 5c87 0 190 -74 190 -215zM345 223c0 53 -33 81 -73 81s-73 -28 -73 -81s33 -81 73 -81s73 28 73 81z" />
    <glyph glyph-name="seven.lf" horiz-adv-x="568" 
d="M533 564l-222 -564h-180l222 564h-152v-112h-156v260h488v-148z" />
    <glyph glyph-name="eight.lf" horiz-adv-x="576" 
d="M527 213c0 -148 -108 -219 -239 -219s-239 71 -239 219c0 89 53 131 80 153c-25 21 -73 64 -73 141c0 135 110 211 232 211s232 -76 232 -211c0 -77 -48 -120 -73 -141c27 -22 80 -64 80 -153zM363 217c0 41 -34 75 -75 75s-75 -34 -75 -75s34 -75 75 -75s75 34 75 75z
M356 502c0 38 -30 68 -68 68s-68 -30 -68 -68s30 -68 68 -68s68 30 68 68z" />
    <glyph glyph-name="nine.lf" horiz-adv-x="544" 
d="M509 489c0 -68 -29 -128 -68 -207l-137 -282h-180l141 279c-14 -5 -29 -5 -40 -5c-87 0 -190 74 -190 215c0 151 109 229 237 229s237 -78 237 -229zM345 489c0 53 -33 81 -73 81s-73 -28 -73 -81s33 -81 73 -81s73 28 73 81z" />
    <glyph glyph-name="zero.tosf" 
d="M511 216c0 -147 -111 -222 -229 -222s-229 75 -229 222v165c0 147 111 222 229 222s229 -75 229 -222v-165zM347 215v166c0 50 -30 74 -65 74s-65 -24 -65 -74v-166c0 -50 30 -73 65 -73s65 23 65 73z" />
    <glyph glyph-name="one.tosf" 
d="M406 0h-164v422l-152 -132v175l152 132h164v-597z" />
    <glyph glyph-name="two.tosf" 
d="M516 0h-468v148l221 173c46 36 73 62 73 93c0 37 -24 61 -64 61c-30 0 -66 -14 -66 -69h-164c0 140 106 217 230 217c128 0 228 -77 228 -205c0 -80 -60 -137 -147 -204l-86 -66h243v-148z" />
    <glyph glyph-name="three.tosf" 
d="M516 98c0 -149 -112 -219 -237 -219c-118 0 -237 63 -237 223h164c0 -50 32 -75 73 -75c43 0 73 25 73 76c0 43 -32 75 -76 75h-23v142h23c49 0 68 35 68 67c0 45 -31 68 -65 68s-65 -24 -65 -67h-164c0 134 102 215 229 215c132 0 229 -88 229 -211
c0 -78 -38 -116 -74 -139c39 -27 82 -70 82 -155z" />
    <glyph glyph-name="four.tosf" 
d="M534 30h-53v-153h-156v153h-295v156l236 462h180l-236 -462h115v94h156v-94h53v-156z" />
    <glyph glyph-name="five.tosf" 
d="M512 128c0 -86 -13 -135 -66 -188c-31 -31 -85 -61 -165 -61s-138 31 -169 62c-51 51 -58 109 -62 161h164c5 -47 25 -75 67 -75c20 0 33 5 46 18c15 15 21 41 21 83c0 79 -27 101 -67 101c-48 0 -60 -32 -67 -51h-151v419h434v-148h-285v-110c14 11 52 28 96 28
c62 0 109 -21 138 -50c58 -58 66 -122 66 -189z" />
    <glyph glyph-name="six.tosf" 
d="M524 227c0 -156 -114 -233 -246 -233s-246 77 -246 233c0 98 28 161 79 255l134 246h177l-165 -289c17 9 39 12 70 12c96 0 197 -73 197 -224zM360 227c0 59 -37 91 -82 91s-82 -32 -82 -91s37 -91 82 -91s82 32 82 91z" />
    <glyph glyph-name="seven.tosf" 
d="M522 449l-222 -564h-180l222 564h-152v-112h-156v260h488v-148z" />
    <glyph glyph-name="eight.tosf" 
d="M517 213c0 -148 -108 -219 -239 -219s-239 71 -239 219c0 89 53 131 80 153c-25 21 -73 64 -73 141c0 135 110 211 232 211s232 -76 232 -211c0 -77 -48 -120 -73 -141c27 -22 80 -64 80 -153zM353 217c0 41 -34 75 -75 75s-75 -34 -75 -75s34 -75 75 -75s75 34 75 75z
M346 502c0 38 -30 68 -68 68s-68 -30 -68 -68s30 -68 68 -68s68 30 68 68z" />
    <glyph glyph-name="nine.tosf" 
d="M524 370c0 -98 -28 -161 -79 -255l-134 -246h-177l165 289c-17 -9 -39 -12 -70 -12c-96 0 -197 73 -197 224c0 156 114 233 246 233s246 -77 246 -233zM360 370c0 59 -37 91 -82 91s-82 -32 -82 -91s37 -91 82 -91s82 32 82 91z" />
    <glyph glyph-name="uni2007.tosf" 
 />
    <glyph glyph-name="hyphen.case" horiz-adv-x="426" 
d="M377 279h-328v154h328v-154z" />
    <glyph glyph-name="exclamdown.case" horiz-adv-x="366" 
d="M266 0h-206l44 475h118zM247 551h-168v161h168v-161z" />
    <glyph glyph-name="guillemotleft.case" horiz-adv-x="672" 
d="M303 85l-273 271l273 270v-193l-79 -77l79 -78v-193zM612 85l-273 271l273 270v-193l-81 -77l81 -78v-193z" />
    <glyph glyph-name="uni00AD.case" horiz-adv-x="426" 
d="M377 279h-328v154h328v-154z" />
    <glyph glyph-name="guillemotright.case" horiz-adv-x="672" 
d="M642 356l-273 -271v193l79 78l-79 77v193zM333 356l-273 -271v193l80 78l-80 77v193z" />
    <glyph glyph-name="questiondown.case" horiz-adv-x="538" 
d="M478 205c0 -136 -103 -211 -224 -211c-118 0 -224 71 -224 210c0 52 23 92 51 128l69 87c9 11 18 30 18 47v9h164v-23c0 -45 -11 -76 -41 -111l-70 -82c-15 -17 -27 -40 -27 -56c0 -35 20 -61 60 -61c42 0 60 27 60 63h164zM334 551h-168v161h168v-161z" />
    <glyph glyph-name="endash.case" 
d="M507 279h-458v154h458v-154z" />
    <glyph glyph-name="emdash.case" horiz-adv-x="1093" 
d="M1044 277h-995v158h995v-158z" />
    <glyph glyph-name="afii00208.case" horiz-adv-x="1093" 
d="M1044 277h-995v158h995v-158z" />
    <glyph glyph-name="guilsinglleft.case" horiz-adv-x="363" 
d="M303 85l-273 271l273 270v-193l-79 -77l79 -78v-193z" />
    <glyph glyph-name="guilsinglright.case" horiz-adv-x="363" 
d="M333 356l-273 -271v193l80 78l-80 77v193z" />
    <glyph glyph-name="caroncomma.ss01" horiz-adv-x="550" 
d="M731 648l-139 -101v215h139v-114z" />
    <glyph glyph-name="commaaccent.ss01" horiz-adv-x="288" 
d="M207 -133c0 -58 -45 -104 -117 -104v76c20 0 31 14 31 28s-11 28 -31 28v76c72 0 117 -46 117 -104z" />
    <glyph glyph-name="commaturn.ss01" horiz-adv-x="288" 
d="M201 593c-72 0 -117 46 -117 104s45 104 117 104v-76c-20 0 -31 -14 -31 -28s11 -28 31 -28v-76z" />
    <glyph glyph-name="exclam.ss01" horiz-adv-x="366" 
d="M306 712l-44 -475h-118l-44 475h206zM298 92c0 -52 -43 -95 -95 -95s-95 43 -95 95s43 95 95 95s95 -43 95 -95z" />
    <glyph glyph-name="period.ss01" horiz-adv-x="308" 
d="M259 102c0 -58 -47 -105 -105 -105s-105 47 -105 105s47 105 105 105s105 -47 105 -105z" />
    <glyph glyph-name="colon.ss01" horiz-adv-x="331" 
d="M282 352c0 -58 -47 -105 -105 -105s-105 47 -105 105s47 105 105 105s105 -47 105 -105zM282 102c0 -58 -47 -105 -105 -105s-105 47 -105 105s47 105 105 105s105 -47 105 -105z" />
    <glyph glyph-name="semicolon.ss01" horiz-adv-x="317" 
d="M264 -50l-174 -128v352h174v-224zM282 352c0 -58 -47 -105 -105 -105s-105 47 -105 105s47 105 105 105s105 -47 105 -105z" />
    <glyph glyph-name="question.ss01" horiz-adv-x="538" 
d="M508 508c0 -52 -23 -92 -51 -128l-69 -87c-9 -11 -18 -30 -18 -47v-9h-164v23c0 45 11 76 41 111l70 82c15 17 27 40 27 56c0 35 -20 61 -60 61c-42 0 -60 -27 -60 -63h-164c0 136 103 211 224 211c118 0 224 -71 224 -210zM383 92c0 -52 -43 -95 -95 -95s-95 43 -95 95
s43 95 95 95s95 -43 95 -95z" />
    <glyph glyph-name="at.ss01" horiz-adv-x="980" 
d="M937 348c0 -162 -125 -305 -310 -305h-127l8 41c-35 -33 -67 -47 -107 -47c-95 0 -141 65 -141 130c0 26 5 56 14 102c20 99 31 149 82 193c35 31 76 39 117 39c47 0 79 -14 103 -43l7 37h149l-72 -360c112 11 161 108 161 213c0 162 -113 262 -293 262
c-203 0 -357 -150 -357 -348c0 -223 135 -342 361 -342h90l-20 -100h-91c-284 0 -462 182 -462 442c0 261 205 456 479 456c246 0 409 -156 409 -370zM544 322c0 31 -16 49 -43 49c-15 0 -29 -4 -40 -13c-17 -14 -30 -41 -39 -89c-3 -17 -6 -34 -6 -53c0 -31 16 -49 43 -49
c16 0 30 3 42 14c16 14 28 42 37 88c3 17 6 34 6 53z" />
    <glyph glyph-name="C.ss01" horiz-adv-x="547" 
d="M516 73c-48 -48 -103 -79 -197 -79c-86 0 -146 27 -197 78c-73 73 -73 164 -73 284s0 211 73 284c51 51 111 78 197 78c94 0 149 -31 197 -79l-116 -116c-23 23 -41 39 -81 39c-32 0 -55 -13 -68 -30c-16 -21 -27 -46 -27 -176s11 -155 27 -176c13 -17 36 -30 68 -30
c40 0 58 16 81 39z" />
    <glyph glyph-name="G.ss01" horiz-adv-x="633" 
d="M591 314c0 -115 -16 -183 -70 -238c-53 -54 -117 -82 -202 -82c-86 0 -146 27 -197 78c-73 73 -73 164 -73 284s0 211 73 284c51 51 111 78 197 78c102 0 156 -24 220 -88l-119 -119c-34 34 -56 51 -101 51c-32 0 -56 -14 -69 -31c-16 -21 -26 -45 -26 -175
s10 -155 26 -176c13 -17 37 -30 69 -30c37 0 56 11 72 28c19 19 26 54 26 78v8h-98v146h272v-96z" />
    <glyph glyph-name="i.ss01" horiz-adv-x="288" 
d="M226 0h-164v517h164v-517zM244 662c0 -55 -45 -100 -100 -100s-100 45 -100 100s45 100 100 100s100 -45 100 -100z" />
    <glyph glyph-name="j.ss01" horiz-adv-x="288" 
d="M226 -21c0 -74 -48 -159 -167 -159h-87v138h57c22 0 33 12 33 33v526h164v-538zM244 662c0 -55 -45 -100 -100 -100s-100 45 -100 100s45 100 100 100s100 -45 100 -100z" />
    <glyph glyph-name="exclamdown.ss01" horiz-adv-x="366" 
d="M306 -174h-206l44 475h118zM298 446c0 -52 -43 -95 -95 -95s-95 43 -95 95s43 95 95 95s95 -43 95 -95z" />
    <glyph glyph-name="dieresis.ss01" horiz-adv-x="500" 
d="M213 680c0 -44 -36 -80 -80 -80s-80 36 -80 80s36 80 80 80s80 -36 80 -80zM447 680c0 -44 -36 -80 -80 -80s-80 36 -80 80s36 80 80 80s80 -36 80 -80z" />
    <glyph glyph-name="periodcentered.ss01" horiz-adv-x="308" 
d="M259 295c0 -58 -47 -105 -105 -105s-105 47 -105 105s47 105 105 105s105 -47 105 -105z" />
    <glyph glyph-name="cedilla.ss01" horiz-adv-x="500" 
d="M328 -133c0 -58 -45 -104 -117 -104v76c20 0 31 14 31 28s-11 28 -31 28v76c72 0 117 -46 117 -104z" />
    <glyph glyph-name="questiondown.ss01" horiz-adv-x="538" 
d="M508 31c0 -136 -103 -211 -224 -211c-118 0 -224 71 -224 210c0 52 23 92 51 128l69 87c9 11 18 30 18 47v9h164v-23c0 -45 -11 -76 -41 -111l-70 -82c-15 -17 -27 -40 -27 -56c0 -35 20 -61 60 -61c42 0 60 27 60 63h164zM375 446c0 -52 -43 -95 -95 -95s-95 43 -95 95
s43 95 95 95s95 -43 95 -95z" />
    <glyph glyph-name="Adieresis.ss01" horiz-adv-x="653" 
d="M653 0h-183l-33 106h-219l-35 -106h-183l259 712h135zM391 252l-60 190l-64 -190h124zM523 852c0 -44 -36 -80 -80 -80s-80 36 -80 80s36 80 80 80s80 -36 80 -80zM289 852c0 -44 -36 -80 -80 -80s-80 36 -80 80s36 80 80 80s80 -36 80 -80z" />
    <glyph glyph-name="Ccedilla.ss01" horiz-adv-x="547" 
d="M516 73c-48 -48 -103 -79 -197 -79c-86 0 -146 27 -197 78c-73 73 -73 164 -73 284s0 211 73 284c51 51 111 78 197 78c94 0 149 -31 197 -79l-116 -116c-23 23 -41 39 -81 39c-32 0 -55 -13 -68 -30c-16 -21 -27 -46 -27 -176s11 -155 27 -176c13 -17 36 -30 68 -30
c40 0 58 16 81 39zM363 -133c0 -58 -45 -104 -117 -104v76c20 0 31 14 31 28s-11 28 -31 28v76c72 0 117 -46 117 -104z" />
    <glyph glyph-name="Edieresis.ss01" horiz-adv-x="608" 
d="M556 0h-484v712h484v-156h-309v-119h264v-156h-264v-125h309v-156zM505 852c0 -44 -36 -80 -80 -80s-80 36 -80 80s36 80 80 80s80 -36 80 -80zM271 852c0 -44 -36 -80 -80 -80s-80 36 -80 80s36 80 80 80s80 -36 80 -80z" />
    <glyph glyph-name="Idieresis.ss01" horiz-adv-x="319" 
d="M247 0h-175v712h175v-712zM355 852c0 -44 -36 -80 -80 -80s-80 36 -80 80s36 80 80 80s80 -36 80 -80zM121 852c0 -44 -36 -80 -80 -80s-80 36 -80 80s36 80 80 80s80 -36 80 -80z" />
    <glyph glyph-name="Odieresis.ss01" horiz-adv-x="640" 
d="M591 356c0 -120 0 -211 -73 -284c-51 -51 -111 -78 -198 -78s-147 27 -198 78c-73 73 -73 164 -73 284s0 211 73 284c51 51 111 78 198 78s147 -27 198 -78c73 -73 73 -164 73 -284zM416 356c0 130 -10 154 -26 175c-13 17 -38 31 -70 31s-57 -14 -70 -31
c-16 -21 -26 -45 -26 -175s10 -153 26 -174c13 -17 38 -32 70 -32s57 15 70 32c16 21 26 44 26 174zM517 852c0 -44 -36 -80 -80 -80s-80 36 -80 80s36 80 80 80s80 -36 80 -80zM283 852c0 -44 -36 -80 -80 -80s-80 36 -80 80s36 80 80 80s80 -36 80 -80z" />
    <glyph glyph-name="Udieresis.ss01" horiz-adv-x="660" 
d="M600 250c0 -156 -123 -256 -271 -256s-269 100 -269 256v462h175v-458c0 -66 36 -104 94 -104s96 38 96 104v458h175v-462zM527 852c0 -44 -36 -80 -80 -80s-80 36 -80 80s36 80 80 80s80 -36 80 -80zM293 852c0 -44 -36 -80 -80 -80s-80 36 -80 80s36 80 80 80
s80 -36 80 -80z" />
    <glyph glyph-name="adieresis.ss01" horiz-adv-x="536" 
d="M483 0h-160v44c-33 -33 -63 -49 -120 -49c-54 0 -99 18 -129 48c-31 31 -47 76 -47 126c0 81 55 156 186 156h106v14c0 49 -24 67 -81 67c-37 0 -59 -12 -85 -38l-102 102c55 55 104 74 195 74c154 0 237 -64 237 -195v-349zM319 202v14h-78c-38 0 -57 -17 -57 -44
c0 -25 19 -44 59 -44c27 0 42 4 59 19c13 12 17 27 17 55zM463 680c0 -44 -36 -80 -80 -80s-80 36 -80 80s36 80 80 80s80 -36 80 -80zM229 680c0 -44 -36 -80 -80 -80s-80 36 -80 80s36 80 80 80s80 -36 80 -80z" />
    <glyph glyph-name="ccedilla.ss01" horiz-adv-x="475" 
d="M457 63c-44 -44 -102 -69 -177 -69c-93 0 -242 40 -242 275s149 275 242 275c75 0 133 -25 177 -69l-111 -111c-21 21 -39 32 -66 32c-22 0 -37 -7 -51 -21c-19 -20 -27 -55 -27 -106s8 -86 27 -106c14 -14 29 -21 51 -21c27 0 45 11 66 32zM328 -133
c0 -58 -45 -104 -117 -104v76c20 0 31 14 31 28s-11 28 -31 28v76c72 0 117 -46 117 -104z" />
    <glyph glyph-name="edieresis.ss01" horiz-adv-x="559" 
d="M521 216h-322c0 -44 34 -84 95 -84c57 0 82 16 111 45l98 -98c-55 -55 -109 -85 -209 -85c-119 0 -256 43 -256 275c0 176 100 275 241 275c156 0 242 -112 242 -260v-68zM359 325c0 13 -2 27 -9 42c-10 22 -32 42 -71 42s-61 -20 -71 -42c-7 -15 -9 -29 -9 -42h160z
M480 680c0 -44 -36 -80 -80 -80s-80 36 -80 80s36 80 80 80s80 -36 80 -80zM246 680c0 -44 -36 -80 -80 -80s-80 36 -80 80s36 80 80 80s80 -36 80 -80z" />
    <glyph glyph-name="idieresis.ss01" horiz-adv-x="288" 
d="M226 0h-164v517h164v-517zM344 680c0 -44 -36 -80 -80 -80s-80 36 -80 80s36 80 80 80s80 -36 80 -80zM110 680c0 -44 -36 -80 -80 -80s-80 36 -80 80s36 80 80 80s80 -36 80 -80z" />
    <glyph glyph-name="odieresis.ss01" horiz-adv-x="550" 
d="M507 269c0 -106 -14 -157 -59 -206c-32 -34 -86 -69 -173 -69s-141 35 -173 69c-45 49 -59 100 -59 206c0 105 14 157 59 206c32 34 86 69 173 69s141 -35 173 -69c45 -49 59 -101 59 -206zM343 269c0 53 -3 91 -24 112c-10 10 -24 15 -44 15s-34 -5 -44 -15
c-21 -21 -24 -59 -24 -112s3 -91 24 -112c10 -10 24 -15 44 -15s34 5 44 15c21 21 24 59 24 112zM472 680c0 -44 -36 -80 -80 -80s-80 36 -80 80s36 80 80 80s80 -36 80 -80zM238 680c0 -44 -36 -80 -80 -80s-80 36 -80 80s36 80 80 80s80 -36 80 -80z" />
    <glyph glyph-name="divide.ss01" 
d="M513 218h-470v154h470v-154zM383 518c0 -58 -47 -105 -105 -105s-105 47 -105 105s47 105 105 105s105 -47 105 -105zM383 72c0 -58 -47 -105 -105 -105s-105 47 -105 105s47 105 105 105s105 -47 105 -105z" />
    <glyph glyph-name="udieresis.ss01" horiz-adv-x="579" 
d="M517 0h-160v44c-33 -33 -82 -50 -125 -50c-51 0 -92 17 -121 46c-46 46 -54 97 -54 154v344h164v-322c0 -62 44 -74 66 -74s66 12 66 74v322h164v-538zM484 680c0 -44 -36 -80 -80 -80s-80 36 -80 80s36 80 80 80s80 -36 80 -80zM250 680c0 -44 -36 -80 -80 -80
s-80 36 -80 80s36 80 80 80s80 -36 80 -80z" />
    <glyph glyph-name="ydieresis.ss01" horiz-adv-x="514" 
d="M522 538l-223 -602c-11 -31 -25 -54 -42 -71c-32 -34 -73 -45 -121 -45h-62v148h35c29 0 44 7 55 40l15 45l-179 485h172l91 -279l87 279h172zM220 680c0 -44 -36 -80 -80 -80s-80 36 -80 80s36 80 80 80s80 -36 80 -80zM454 680c0 -44 -36 -80 -80 -80s-80 36 -80 80
s36 80 80 80s80 -36 80 -80z" />
    <glyph glyph-name="Aogonek.ss01" horiz-adv-x="653" 
d="M653 0h-183l-33 106h-219l-35 -106h-183l259 712h135zM391 252l-60 190l-64 -190h124zM639 -237c-72 0 -117 46 -117 104s45 104 117 104v-76c-20 0 -31 -14 -31 -28s11 -28 31 -28v-76z" />
    <glyph glyph-name="aogonek.ss01" horiz-adv-x="536" 
d="M483 0h-160v44c-33 -33 -63 -49 -120 -49c-54 0 -99 18 -129 48c-31 31 -47 76 -47 126c0 81 55 156 186 156h106v14c0 49 -24 67 -81 67c-37 0 -59 -12 -85 -38l-102 102c55 55 104 74 195 74c154 0 237 -64 237 -195v-349zM319 202v14h-78c-38 0 -57 -17 -57 -44
c0 -25 19 -44 59 -44c27 0 42 4 59 19c13 12 17 27 17 55zM466 -237c-72 0 -117 46 -117 104s45 104 117 104v-76c-20 0 -31 -14 -31 -28s11 -28 31 -28v-76z" />
    <glyph glyph-name="Cacute.ss01" horiz-adv-x="547" 
d="M516 73c-48 -48 -103 -79 -197 -79c-86 0 -146 27 -197 78c-73 73 -73 164 -73 284s0 211 73 284c51 51 111 78 197 78c94 0 149 -31 197 -79l-116 -116c-23 23 -41 39 -81 39c-32 0 -55 -13 -68 -30c-16 -21 -27 -46 -27 -176s11 -155 27 -176c13 -17 36 -30 68 -30
c40 0 58 16 81 39zM435 962l-101 -180h-117l65 180h153z" />
    <glyph glyph-name="Ccircumflex.ss01" horiz-adv-x="547" 
d="M516 73c-48 -48 -103 -79 -197 -79c-86 0 -146 27 -197 78c-73 73 -73 164 -73 284s0 211 73 284c51 51 111 78 197 78c94 0 149 -31 197 -79l-116 -116c-23 23 -41 39 -81 39c-32 0 -55 -13 -68 -30c-16 -21 -27 -46 -27 -176s11 -155 27 -176c13 -17 36 -30 68 -30
c40 0 58 16 81 39zM520 782h-122l-79 83l-79 -83h-122l136 179h130z" />
    <glyph glyph-name="Cdotaccent.ss01" horiz-adv-x="547" 
d="M516 73c-48 -48 -103 -79 -197 -79c-86 0 -146 27 -197 78c-73 73 -73 164 -73 284s0 211 73 284c51 51 111 78 197 78c94 0 149 -31 197 -79l-116 -116c-23 23 -41 39 -81 39c-32 0 -55 -13 -68 -30c-16 -21 -27 -46 -27 -176s11 -155 27 -176c13 -17 36 -30 68 -30
c40 0 58 16 81 39zM399 854c0 -44 -36 -80 -80 -80s-80 36 -80 80s36 80 80 80s80 -36 80 -80z" />
    <glyph glyph-name="cdotaccent.ss01" horiz-adv-x="475" 
d="M457 63c-44 -44 -102 -69 -177 -69c-93 0 -242 40 -242 275s149 275 242 275c75 0 133 -25 177 -69l-111 -111c-21 21 -39 32 -66 32c-22 0 -37 -7 -51 -21c-19 -20 -27 -55 -27 -106s8 -86 27 -106c14 -14 29 -21 51 -21c27 0 45 11 66 32zM360 682
c0 -44 -36 -80 -80 -80s-80 36 -80 80s36 80 80 80s80 -36 80 -80z" />
    <glyph glyph-name="Ccaron.ss01" horiz-adv-x="547" 
d="M516 73c-48 -48 -103 -79 -197 -79c-86 0 -146 27 -197 78c-73 73 -73 164 -73 284s0 211 73 284c51 51 111 78 197 78c94 0 149 -31 197 -79l-116 -116c-23 23 -41 39 -81 39c-32 0 -55 -13 -68 -30c-16 -21 -27 -46 -27 -176s11 -155 27 -176c13 -17 36 -30 68 -30
c40 0 58 16 81 39zM520 961l-136 -179h-130l-136 179h122l79 -83l79 83h122z" />
    <glyph glyph-name="dcaron.ss01" horiz-adv-x="569" 
d="M526 0h-159v44c-33 -33 -68 -50 -124 -50c-52 0 -99 17 -130 49c-50 52 -51 133 -51 226s1 174 51 226c31 32 77 49 129 49c53 0 90 -15 120 -45v213h164v-712zM362 269c0 78 -7 127 -68 127s-68 -49 -68 -127s7 -127 68 -127s68 49 68 127zM731 648l-139 -101v215h139
v-114z" />
    <glyph glyph-name="Edotaccent.ss01" horiz-adv-x="608" 
d="M556 0h-484v712h484v-156h-309v-119h264v-156h-264v-125h309v-156zM383 854c0 -44 -36 -80 -80 -80s-80 36 -80 80s36 80 80 80s80 -36 80 -80z" />
    <glyph glyph-name="edotaccent.ss01" horiz-adv-x="559" 
d="M521 216h-322c0 -44 34 -84 95 -84c57 0 82 16 111 45l98 -98c-55 -55 -109 -85 -209 -85c-119 0 -256 43 -256 275c0 176 100 275 241 275c156 0 242 -112 242 -260v-68zM359 325c0 13 -2 27 -9 42c-10 22 -32 42 -71 42s-61 -20 -71 -42c-7 -15 -9 -29 -9 -42h160z
M363 682c0 -44 -36 -80 -80 -80s-80 36 -80 80s36 80 80 80s80 -36 80 -80z" />
    <glyph glyph-name="Eogonek.ss01" horiz-adv-x="608" 
d="M556 0h-484v712h484v-156h-309v-119h264v-156h-264v-125h309v-156zM531 -237c-72 0 -117 46 -117 104s45 104 117 104v-76c-20 0 -31 -14 -31 -28s11 -28 31 -28v-76z" />
    <glyph glyph-name="eogonek.ss01" horiz-adv-x="559" 
d="M521 216h-322c0 -44 34 -84 95 -84c57 0 82 16 111 45l98 -98c-55 -55 -109 -85 -209 -85c-119 0 -256 43 -256 275c0 176 100 275 241 275c156 0 242 -112 242 -260v-68zM359 325c0 13 -2 27 -9 42c-10 22 -32 42 -71 42s-61 -20 -71 -42c-7 -15 -9 -29 -9 -42h160z
M463 -237c-72 0 -117 46 -117 104s45 104 117 104v-76c-20 0 -31 -14 -31 -28s11 -28 31 -28v-76z" />
    <glyph glyph-name="Gcircumflex.ss01" horiz-adv-x="633" 
d="M591 314c0 -115 -16 -183 -70 -238c-53 -54 -117 -82 -202 -82c-86 0 -146 27 -197 78c-73 73 -73 164 -73 284s0 211 73 284c51 51 111 78 197 78c102 0 156 -24 220 -88l-119 -119c-34 34 -56 51 -101 51c-32 0 -56 -14 -69 -31c-16 -21 -26 -45 -26 -175
s10 -155 26 -176c13 -17 37 -30 69 -30c37 0 56 11 72 28c19 19 26 54 26 78v8h-98v146h272v-96zM520 782h-122l-79 83l-79 -83h-122l136 179h130z" />
    <glyph glyph-name="Gbreve.ss01" horiz-adv-x="633" 
d="M591 314c0 -115 -16 -183 -70 -238c-53 -54 -117 -82 -202 -82c-86 0 -146 27 -197 78c-73 73 -73 164 -73 284s0 211 73 284c51 51 111 78 197 78c102 0 156 -24 220 -88l-119 -119c-34 34 -56 51 -101 51c-32 0 -56 -14 -69 -31c-16 -21 -26 -45 -26 -175
s10 -155 26 -176c13 -17 37 -30 69 -30c37 0 56 11 72 28c19 19 26 54 26 78v8h-98v146h272v-96zM483 931c-3 -118 -87 -157 -164 -157s-161 39 -164 157h106c3 -37 33 -47 58 -47s55 10 58 47h106z" />
    <glyph glyph-name="Gdotaccent.ss01" horiz-adv-x="633" 
d="M591 314c0 -115 -16 -183 -70 -238c-53 -54 -117 -82 -202 -82c-86 0 -146 27 -197 78c-73 73 -73 164 -73 284s0 211 73 284c51 51 111 78 197 78c102 0 156 -24 220 -88l-119 -119c-34 34 -56 51 -101 51c-32 0 -56 -14 -69 -31c-16 -21 -26 -45 -26 -175
s10 -155 26 -176c13 -17 37 -30 69 -30c37 0 56 11 72 28c19 19 26 54 26 78v8h-98v146h272v-96zM399 854c0 -44 -36 -80 -80 -80s-80 36 -80 80s36 80 80 80s80 -36 80 -80z" />
    <glyph glyph-name="gdotaccent.ss01" horiz-adv-x="561" 
d="M499 39c0 -127 -96 -219 -243 -219c-84 0 -147 15 -202 70l102 102c25 -25 55 -34 92 -34c69 0 87 47 87 82v39c-30 -30 -66 -45 -116 -45c-52 0 -95 17 -126 48c-49 49 -50 109 -50 207s1 158 50 207c31 31 75 48 127 48c55 0 87 -17 120 -50v44h159v-499zM335 289
c0 55 -4 107 -64 107s-64 -52 -64 -107s4 -107 64 -107s64 52 64 107zM351 682c0 -44 -36 -80 -80 -80s-80 36 -80 80s36 80 80 80s80 -36 80 -80z" />
    <glyph glyph-name="Gcommaaccent.ss01" horiz-adv-x="633" 
d="M591 314c0 -115 -16 -183 -70 -238c-53 -54 -117 -82 -202 -82c-86 0 -146 27 -197 78c-73 73 -73 164 -73 284s0 211 73 284c51 51 111 78 197 78c102 0 156 -24 220 -88l-119 -119c-34 34 -56 51 -101 51c-32 0 -56 -14 -69 -31c-16 -21 -26 -45 -26 -175
s10 -155 26 -176c13 -17 37 -30 69 -30c37 0 56 11 72 28c19 19 26 54 26 78v8h-98v146h272v-96zM367 -133c0 -58 -45 -104 -117 -104v76c20 0 31 14 31 28s-11 28 -31 28v76c72 0 117 -46 117 -104z" />
    </font>
</defs>
</svg>
